<?xml version="1.0" standalone="no"?>
<!DOCTYPE svg PUBLIC "-//W3C//DTD SVG 1.1//EN" "http://www.w3.org/Graphics/SVG/1.1/DTD/svg11.dtd" >
<svg xmlns="http://www.w3.org/2000/svg" xmlns:xlink="http://www.w3.org/1999/xlink" version="1.1">
<metadata>
Created by FontForge 20150824 at Wed Jan 13 07:17:53 2016
 By Everything Fonts
Copyright (c) 2006 by Zakhar Yashchin. All rights reserved.
</metadata>
<defs>
<font id="ALSEkibastuz-ExtraBlack" horiz-adv-x="760" >
  <font-face 
    font-family="ALS Ekibastuz "
    font-weight="1000"
    font-stretch="normal"
    units-per-em="1000"
    panose-1="2 0 9 5 2 0 0 2 0 4"
    ascent="800"
    descent="-200"
    x-height="500"
    cap-height="700"
    bbox="-67 -251 1573 974"
    underline-thickness="50"
    underline-position="-100"
    stemh="200"
    stemv="156"
    unicode-range="U+0020-2122"
  />
<missing-glyph horiz-adv-x="500" 
 />
    <glyph glyph-name=".notdef" horiz-adv-x="500" 
 />
    <glyph glyph-name="space" unicode=" " horiz-adv-x="500" 
 />
    <glyph glyph-name="exclam" unicode="!" horiz-adv-x="340" 
d="M40 700h260l-30 -440h-200zM40 204h260v-204h-260v204z" />
    <glyph glyph-name="quotedbl" unicode="&#x22;" horiz-adv-x="569" 
d="M309 700h210l-10 -230h-190zM50 700h210l-10 -230h-190z" />
    <glyph glyph-name="numbersign" unicode="#" horiz-adv-x="890" 
d="M50 390v220h155l17 90h265l-18 -90h54l17 90h265l-18 -90h53v-220h-96l-15 -80h111v-220h-154l-18 -90h-264l17 90h-53l-18 -90h-264l17 90h-53v220h96l16 80h-112zM426 390l-15 -80h53l16 80h-54z" />
    <glyph glyph-name="dollar" unicode="$" horiz-adv-x="670" 
d="M265 730h140v-60c78 -3 150 -12 207 -22l-25 -160c-48 6 -129 12 -182 12v-50c128 0 235 -73 235 -213c0 -152 -67 -243 -235 -247v-70h-140v70c-89 0 -170 13 -227 30l25 170c43 -9 137 -16 202 -16v56c-126 0 -235 54 -235 208c0 176 103 232 235 232v60zM405 230v-56
c19 0 25 11 25 29c0 16 -7 27 -25 27zM265 450v50c-19 0 -25 -9 -25 -26c0 -15 6 -24 25 -24z" />
    <glyph glyph-name="ampersand" unicode="&#x26;" horiz-adv-x="867" 
d="M654 657l-45 -189c-28 14 -70 33 -110 33c-33 0 -59 -12 -59 -40c0 -21 11 -40 21 -53l117 -129c6 10 13 41 13 65l225 -27c0 -89 -80 -161 -105 -182l126 -135h-264l-31 31c-30 -18 -89 -41 -197 -41c-113 0 -305 21 -305 209c0 134 77 180 160 202
c-17 24 -41 60 -41 129c0 116 121 180 263 180c126 0 197 -36 232 -53zM359 136c24 0 54 2 77 16l-110 116c-15 -15 -27 -39 -27 -69c0 -40 27 -63 60 -63z" />
    <glyph glyph-name="quotesingle" unicode="'" horiz-adv-x="310" 
d="M50 700h210l-10 -230h-190z" />
    <glyph glyph-name="parenleft" unicode="(" horiz-adv-x="525" 
d="M60 325c0 195 78 365 146 485l239 -40c-86 -147 -125 -261 -125 -445s39 -296 125 -443l-239 -40c-70 118 -146 288 -146 483z" />
    <glyph glyph-name="parenright" unicode=")" horiz-adv-x="525" 
d="M445 325c0 -195 -76 -365 -146 -483l-239 40c86 147 125 259 125 443s-39 298 -125 445l239 40c68 -120 146 -290 146 -485z" />
    <glyph glyph-name="asterisk" unicode="*" horiz-adv-x="754" 
d="M50 515l86 180l151 -87l-10 132h200l-10 -132l151 87l86 -180l-125 -45l125 -45l-86 -180l-151 87l10 -132h-200l10 132l-151 -87l-86 180l124 45z" />
    <glyph glyph-name="plus" unicode="+" horiz-adv-x="600" 
d="M190 585h220v-140h140v-190h-140v-140h-220v140h-140v190h140v140z" />
    <glyph glyph-name="comma" unicode="," horiz-adv-x="340" 
d="M40 204h260v-124c0 -88 -77 -193 -150 -234l-81 47c32 28 51 59 51 107h-80v204z" />
    <glyph glyph-name="hyphen" unicode="-" horiz-adv-x="400" 
d="M50 220v190h300v-190h-300z" />
    <glyph glyph-name="period" unicode="." horiz-adv-x="340" 
d="M40 204h260v-204h-260v204z" />
    <glyph glyph-name="slash" unicode="/" horiz-adv-x="568" 
d="M568 700l-349 -700h-219l348 700h220z" />
    <glyph glyph-name="zero" unicode="0" horiz-adv-x="700" 
d="M20 297v96c0 228 136 317 330 317c195 0 330 -88 330 -317v-96c0 -225 -131 -307 -330 -307c-197 0 -330 80 -330 307zM350 510c-54 0 -60 -51 -60 -100v-120c0 -63 6 -100 60 -100s60 37 60 100v120c0 50 -6 100 -60 100z" />
    <glyph glyph-name="one" unicode="1" horiz-adv-x="700" 
d="M100 458l274 242h226v-700h-260v386l-182 -128z" />
    <glyph glyph-name="two" unicode="2" horiz-adv-x="700" 
d="M335 710c158 0 302 -38 302 -211c0 -164 -109 -206 -217 -239c-51 -16 -95 -18 -95 -74h320v-186h-590v54c0 212 37 272 157 321c58 24 163 52 163 89c0 24 -15 28 -57 28c-33 0 -135 -11 -230 -25l-25 210c75 16 166 33 272 33z" />
    <glyph glyph-name="three" unicode="3" horiz-adv-x="700" 
d="M60 22l30 197c56 -10 135 -17 197 -17c65 0 93 5 93 34c0 34 -31 38 -96 38h-110l-26 160h136c61 0 69 9 69 33c0 27 -18 30 -69 30c-61 0 -138 -4 -187 -13l-37 198c32 10 141 28 216 28c216 0 327 -35 327 -175c0 -101 -44 -130 -92 -148c76 -22 129 -62 129 -180
c0 -191 -148 -217 -373 -217c-66 0 -178 19 -207 32z" />
    <glyph glyph-name="four" unicode="4" horiz-adv-x="700" 
d="M282 700h298v-350h90l-30 -210h-60v-140h-260v140h-290v185zM320 478l-78 -127h78v127z" />
    <glyph glyph-name="five" unicode="5" horiz-adv-x="700" 
d="M50 22l30 177c56 -10 165 -17 235 -17c47 0 65 8 65 51c0 31 -28 41 -75 41c-55 0 -149 -4 -213 -7l31 433h502l-13 -208h-274l-6 -66c20 4 96 7 128 7c122 0 190 -38 190 -196c0 -221 -155 -247 -314 -247c-125 0 -244 17 -286 32z" />
    <glyph glyph-name="six" unicode="6" horiz-adv-x="700" 
d="M50 296v107c0 200 136 306 318 306c117 0 210 -23 273 -40l-40 -186c-54 18 -139 25 -201 25c-72 0 -89 -28 -89 -78v-21c5 2 22 7 45 12s54 10 88 10c127 0 206 -49 206 -216c0 -151 -82 -225 -282 -225s-318 74 -318 306zM311 271v-29c0 -49 2 -72 41 -72
c23 0 37 15 37 44c0 20 -2 63 -36 63c-11 0 -29 -3 -42 -6z" />
    <glyph glyph-name="seven" unicode="7" horiz-adv-x="700" 
d="M451 0h-310c0 216 73 367 200 470h-290v230h597v-166c-68 -54 -197 -234 -197 -534z" />
    <glyph glyph-name="eight" unicode="8" horiz-adv-x="700" 
d="M165 379c-60 20 -115 56 -115 163c0 121 125 168 300 168s300 -47 300 -168c0 -107 -55 -143 -115 -163c90 -30 145 -91 145 -192c0 -153 -155 -197 -330 -197s-330 44 -330 197c0 101 55 162 145 192zM340 268c-23 -15 -50 -27 -50 -57c0 -31 30 -54 60 -54s60 23 60 54
c0 30 -46 49 -70 57zM350 560c-37 0 -60 -14 -60 -37c0 -39 50 -60 80 -69c13 15 40 41 40 69c0 23 -22 37 -60 37z" />
    <glyph glyph-name="nine" unicode="9" horiz-adv-x="700" 
d="M650 403v-107c0 -200 -136 -306 -318 -306c-117 0 -210 23 -273 40l40 186c54 -18 139 -25 201 -25c72 0 89 28 89 78v21c-11 -4 -65 -22 -133 -22c-127 0 -206 49 -206 216c0 151 82 225 282 225s318 -74 318 -306zM389 428v43c0 39 -7 58 -41 58c-23 0 -37 -15 -37 -44
c0 -20 2 -63 36 -63c11 0 29 3 42 6z" />
    <glyph glyph-name="colon" unicode=":" horiz-adv-x="340" 
d="M40 508h260v-204h-260v204zM40 204h260v-204h-260v204z" />
    <glyph glyph-name="semicolon" unicode=";" horiz-adv-x="340" 
d="M40 508h260v-204h-260v204zM40 204h260v-124c0 -88 -77 -193 -150 -234l-81 47c32 28 51 59 51 107h-80v204z" />
    <glyph glyph-name="less" unicode="&#x3c;" horiz-adv-x="675" 
d="M50 202v105c193 66 383 133 575 200v-181c-102 -23 -198 -44 -297 -68v-8c99 -25 197 -46 297 -68v-181c-192 67 -383 135 -575 201z" />
    <glyph glyph-name="equal" unicode="=" horiz-adv-x="600" 
d="M50 370v170h500v-170h-500zM50 160v170h500v-170h-500z" />
    <glyph glyph-name="greater" unicode="&#x3e;" horiz-adv-x="675" 
d="M625 307v-105c-192 -66 -383 -134 -575 -201v181c100 22 198 43 297 68v8c-99 24 -195 45 -297 68v181c192 -67 382 -134 575 -200z" />
    <glyph glyph-name="question" unicode="?" horiz-adv-x="602" 
d="M74 523l-24 168c24 5 113 19 172 19c188 0 330 -24 330 -211c0 -138 -111 -157 -190 -184c-11 -4 -30 -15 -30 -42v-45h-220v88c0 67 39 102 98 120c34 10 82 24 82 63c0 38 -19 42 -70 42c-33 0 -106 -6 -148 -18zM92 204h260v-204h-260v204z" />
    <glyph glyph-name="at" unicode="@" horiz-adv-x="1175" 
d="M587 750c298 0 538 -59 538 -395c0 -253 -161 -315 -353 -315h-142v32c-14 -20 -66 -42 -110 -42c-85 0 -174 62 -174 242c0 188 116 255 254 255c59 0 127 -6 213 -20v-331c48 5 85 31 85 179c0 217 -73 237 -311 237c-164 0 -310 -71 -310 -318
c0 -274 150 -309 310 -309c138 0 312 16 446 56l28 -146c-153 -59 -320 -77 -474 -77c-321 0 -537 99 -537 476c0 354 216 476 537 476zM586 183c8 0 16 3 20 6v193c-5 1 -11 3 -22 3c-27 0 -48 -16 -49 -102c0 -86 31 -100 51 -100z" />
    <glyph glyph-name="A" unicode="A" 
d="M478 0l-19 100h-156l-20 -100h-273l210 700h329l201 -700h-272zM387 457l-50 -187h89z" />
    <glyph glyph-name="B" unicode="B" horiz-adv-x="660" 
d="M50 0v700h360c110 0 200 -27 200 -180c0 -85 -44 -122 -83 -136c43 -11 103 -35 103 -174c0 -155 -60 -210 -200 -210h-380zM300 270v-100h60c20 0 30 30 30 50s-10 50 -30 50h-60zM340 530h-40v-90h40c20 0 30 30 30 50s-10 40 -30 40z" />
    <glyph glyph-name="C" unicode="C" horiz-adv-x="582" 
d="M520 240l32 -220s-116 -30 -186 -30c-167 0 -336 70 -336 297v126c0 225 170 297 336 297c70 0 186 -30 186 -30l-42 -220s-108 20 -144 20c-46 0 -76 -30 -76 -70v-120c0 -40 20 -70 76 -70c36 0 154 20 154 20z" />
    <glyph glyph-name="D" unicode="D" horiz-adv-x="730" 
d="M50 0v700h280c275 0 370 -80 370 -350s-99 -350 -370 -350h-280zM330 501h-20v-303h20c90 0 110 31 110 152c0 133 -20 151 -110 151z" />
    <glyph glyph-name="E" unicode="E" horiz-adv-x="590" 
d="M310 260v-62h250v-198h-510v700h510v-198h-250v-62h190v-180h-190z" />
    <glyph glyph-name="F" unicode="F" horiz-adv-x="580" 
d="M310 211v-211h-260v700h510v-220h-250v-69h190v-200h-190z" />
    <glyph glyph-name="G" unicode="G" horiz-adv-x="680" 
d="M650 38c-78 -34 -152 -48 -260 -48c-190 0 -360 59 -360 284v146c0 225 170 290 360 290c90 0 174 -14 243 -32l-42 -199c-46 12 -113 25 -167 25c-94 0 -134 -31 -134 -94v-136c0 -72 40 -94 100 -94c22 0 46 2 70 6v71l-100 6v149h290v-374z" />
    <glyph glyph-name="H" unicode="H" horiz-adv-x="790" 
d="M480 700h260v-700h-260v260h-170v-260h-260v700h260v-240h170v240z" />
    <glyph glyph-name="I" unicode="I" horiz-adv-x="480" 
d="M20 500v200h430v-200h-85v-300h95v-200h-430v200h75v300h-85z" />
    <glyph glyph-name="J" unicode="J" horiz-adv-x="542" 
d="M212 -10c-86 0 -149 16 -192 29l27 204c23 -8 66 -23 105 -23c43 0 80 5 80 52v448h260v-474c0 -198 -114 -236 -280 -236z" />
    <glyph glyph-name="K" unicode="K" horiz-adv-x="725" 
d="M310 700v-292h16l87 292h293l-136 -323l145 -377h-285l-102 320h-18v-320h-260v700h260z" />
    <glyph glyph-name="L" unicode="L" horiz-adv-x="600" 
d="M50 0v700h260v-470h270v-230h-530z" />
    <glyph glyph-name="M" unicode="M" horiz-adv-x="1003" 
d="M300 390l-20 -390h-250l56 700h301l115 -410l114 410h301l56 -700h-250l-19 390l-102 -390h-200z" />
    <glyph glyph-name="N" unicode="N" 
d="M480 700h230v-700h-245l-185 298v-298h-230v700h253l177 -289v289z" />
    <glyph glyph-name="O" unicode="O" 
d="M30 267v156c0 225 150 287 350 287s350 -62 350 -287v-156c0 -225 -150 -277 -350 -277s-350 52 -350 277zM300 400v-100c0 -64 4 -110 80 -110s80 46 80 110v100c0 64 -4 110 -80 110c-77 0 -80 -47 -80 -110z" />
    <glyph glyph-name="P" unicode="P" horiz-adv-x="700" 
d="M50 700h290c239 0 330 -77 330 -277s-91 -274 -330 -274h-30v-149h-260v700zM310 499v-150h30c45 0 69 15 69 76s-21 74 -69 74h-30z" />
    <glyph glyph-name="Q" unicode="Q" 
d="M30 267v156c0 225 150 287 350 287s350 -62 350 -287v-156c0 -94 -26 -157 -71 -200l72 -195h-234l-44 121c-24 -2 -48 -3 -73 -3c-200 0 -350 52 -350 277zM342 296h118v110c0 61 -1 104 -80 104s-80 -43 -80 -104v-112c0 -51 8 -95 45 -101c10 -2 21 -3 35 -3z" />
    <glyph glyph-name="R" unicode="R" horiz-adv-x="712" 
d="M414 0l-82 244h-22v-244h-260v700h300c239 0 330 -60 330 -251c0 -124 -41 -189 -107 -199l127 -250h-286zM310 507v-119h50c45 0 59 23 59 61c0 36 -11 58 -59 58h-50z" />
    <glyph glyph-name="S" unicode="S" horiz-adv-x="670" 
d="M330 710c106 0 207 -10 282 -23l-25 -180c-84 16 -207 25 -240 25c-42 0 -57 -6 -57 -23c0 -14 10 -25 40 -33c186 -47 310 -51 310 -259c0 -180 -129 -227 -310 -227c-119 0 -221 20 -292 42l25 180c71 -14 208 -35 267 -35c34 0 50 4 50 19c0 22 -15 34 -50 43
c-192 52 -300 41 -300 249c0 167 111 222 300 222z" />
    <glyph glyph-name="T" unicode="T" horiz-adv-x="600" 
d="M10 470v230h580v-230h-160v-470h-260v470h-160z" />
    <glyph glyph-name="U" unicode="U" horiz-adv-x="730" 
d="M440 700h240v-450c0 -200 -142 -260 -308 -260c-202 0 -322 60 -322 260v450h270v-460c0 -40 23 -50 62 -50s58 10 58 50v460z" />
    <glyph glyph-name="V" unicode="V" horiz-adv-x="753" 
d="M198 0l-188 700h292l69 -465h6l72 465h294l-194 -700h-351z" />
    <glyph glyph-name="W" unicode="W" horiz-adv-x="1042" 
d="M145 0l-135 700h269l32 -424l78 424h235l75 -421l33 421h300l-169 -700h-291l-66 423l-67 -423h-294z" />
    <glyph glyph-name="X" unicode="X" horiz-adv-x="780" 
d="M320 700l70 -236l69 236h311l-170 -350l170 -350h-311l-69 235l-70 -235h-310l169 350l-169 350h310z" />
    <glyph glyph-name="Y" unicode="Y" horiz-adv-x="722" 
d="M231 184l-221 516h281l65 -293l73 293h283l-221 -514v-186h-260v184z" />
    <glyph glyph-name="Z" unicode="Z" horiz-adv-x="620" 
d="M30 520v180h550v-187l-251 -333h271v-180h-580v187l260 333h-250z" />
    <glyph glyph-name="bracketleft" unicode="[" horiz-adv-x="510" 
d="M460 800v-200h-150v-540h150v-200h-410v940h410z" />
    <glyph glyph-name="backslash" unicode="\" horiz-adv-x="568" 
d="M595 -111h-219l-365 833h220z" />
    <glyph glyph-name="bracketright" unicode="]" horiz-adv-x="510" 
d="M200 600h-150v200h410v-940h-410v200h150v540z" />
    <glyph glyph-name="asciicircum" unicode="^" horiz-adv-x="739" 
d="M278 700h183l228 -440h-229l-86 215l-96 -215h-228z" />
    <glyph glyph-name="underscore" unicode="_" horiz-adv-x="500" 
d="M0 -220v200h500v-200h-500z" />
    <glyph glyph-name="grave" unicode="`" horiz-adv-x="318" 
d="M278 749v-176l-162 -22l-76 198h238z" />
    <glyph glyph-name="a" unicode="a" horiz-adv-x="600" 
d="M72 346l-25 132c43 11 122 32 222 32c163 0 291 -40 291 -196v-314h-240v30c-34 -24 -87 -40 -145 -40c-89 0 -145 41 -145 158c0 109 58 145 190 145h102v11c0 30 -8 61 -66 61c-44 0 -140 -11 -184 -19zM304 113h16v81l-28 -2c-15 -5 -22 -20 -22 -40
c0 -21 11 -39 34 -39z" />
    <glyph glyph-name="b" unicode="b" horiz-adv-x="620" 
d="M40 700h240v-230c41 24 76 40 132 40c124 0 188 -70 188 -260c0 -226 -62 -250 -188 -250c-56 0 -97 15 -132 30v-30h-240v700zM296 149c42 0 64 35 64 101c0 61 -21 91 -63 91h-17v-192h16z" />
    <glyph glyph-name="c" unicode="c" horiz-adv-x="485" 
d="M445 163l30 -150c-54 -20 -145 -22 -168 -22c-147 0 -277 60 -277 222v72c0 139 130 226 277 226c26 0 114 -7 168 -26l-30 -150c0 2 -64 16 -85 16c-50 0 -80 -16 -80 -86v-32c0 -70 28 -85 80 -85c35 0 43 4 85 15z" />
    <glyph glyph-name="d" unicode="d" horiz-adv-x="620" 
d="M340 700h240v-700h-240v30c-14 -6 -40 -40 -115 -40c-94 0 -205 50 -205 260s74 260 207 260c71 0 91 -20 113 -40v230zM320 159h20v182h-20c-46 0 -60 -15 -60 -91c0 -66 12 -91 60 -91z" />
    <glyph glyph-name="e" unicode="e" horiz-adv-x="601" 
d="M543 145l21 -136c-61 -9 -150 -19 -254 -19c-125 0 -280 36 -280 211v64c0 175 93 245 280 245c120 0 271 -26 271 -199v-113h-311v-15c0 -48 32 -51 70 -51c53 0 164 7 203 13zM270 320v-18h92v17c0 52 -23 63 -52 63c-30 0 -40 -11 -40 -62z" />
    <glyph glyph-name="f" unicode="f" horiz-adv-x="460" 
d="M490 729l-29 -157c-28 5 -62 8 -82 8c-45 0 -49 -35 -49 -80h110v-170h-110v-330h-240v330h-70v170h70v16c0 165 72 234 206 234c87 0 163 -12 194 -21z" />
    <glyph glyph-name="g" unicode="g" horiz-adv-x="600" 
d="M300 510c21 0 36 -1 65 -4v44h237c0 -50 -19 -97 -67 -117c25 -18 35 -49 35 -79c0 -140 -128 -159 -270 -159h-42v-42c13 1 27 1 42 1c175 0 290 -36 290 -177c0 -140 -115 -178 -290 -178s-290 38 -290 178c0 72 23 115 65 141c-12 16 -19 36 -19 53c0 23 10 46 27 62
c-33 24 -53 61 -53 121c0 140 132 156 270 156zM360 -23c0 29 -10 52 -60 52s-60 -18 -60 -52c0 -30 10 -53 60 -53s60 19 60 53zM340 354c0 29 -6 49 -40 49s-39 -20 -40 -49c0 -28 6 -49 40 -50c34 0 40 22 40 50z" />
    <glyph glyph-name="h" unicode="h" horiz-adv-x="660" 
d="M620 0h-240v300c0 29 -23 40 -52 40c-16 0 -34 -6 -48 -13v-327h-240v700h240v-222c30 14 73 32 161 32c91 0 179 -7 179 -163v-347z" />
    <glyph glyph-name="i" unicode="i" horiz-adv-x="320" 
d="M40 500h240v-500h-240v500zM40 700h240v-117h-240v117z" />
    <glyph glyph-name="j" unicode="j" horiz-adv-x="320" 
d="M-59 -181l16 134c7 -2 31 -4 42 -4c23 0 41 16 41 30v521h240v-520c0 -118 -66 -180 -210 -180c-71 0 -114 13 -129 19zM40 700h240v-117h-240v117z" />
    <glyph glyph-name="k" unicode="k" horiz-adv-x="620" 
d="M280 700v-375h10l70 175h257l-106 -242l109 -258h-252l-79 207h-9v-207h-240v700h240z" />
    <glyph glyph-name="l" unicode="l" horiz-adv-x="320" 
d="M280 0h-240v750h240v-750z" />
    <glyph glyph-name="m" unicode="m" horiz-adv-x="940" 
d="M590 0h-230v312c0 20 -19 30 -38 30c-13 0 -33 -10 -52 -23v-319h-230v500h230v-53c49 32 132 63 189 63c60 0 98 -6 117 -53c51 28 133 53 187 53c126 0 137 -47 137 -153v-357h-230v312c0 22 -19 30 -38 30c-11 0 -27 -7 -42 -15v-327z" />
    <glyph glyph-name="n" unicode="n" horiz-adv-x="660" 
d="M620 0h-240v287c0 44 -23 53 -52 53c-20 0 -36 -5 -48 -10v-330h-240v500h240v-22c50 16 133 32 208 32c92 0 132 -61 132 -199v-311z" />
    <glyph glyph-name="o" unicode="o" horiz-adv-x="610" 
d="M20 210v78c0 150 95 221 280 221s290 -71 290 -221v-78c0 -150 -105 -221 -290 -221s-280 71 -280 221zM250 308v-94c0 -43 2 -86 50 -86s50 45 50 86v70c0 41 0 86 -50 86c-40 0 -50 -29 -50 -62z" />
    <glyph glyph-name="p" unicode="p" horiz-adv-x="630" 
d="M280 -200h-240v700h240v-30c23 15 69 46 145 46c103 0 175 -56 175 -266s-74 -250 -175 -250c-76 0 -105 15 -145 30v-230zM290 341h-10v-182c10 0 23 0 31 1c32 5 49 27 49 90c0 66 -22 91 -70 91z" />
    <glyph glyph-name="q" unicode="q" horiz-adv-x="630" 
d="M590 500v-700h-240v230c-34 -19 -76 -42 -126 -42c-132 0 -194 72 -194 262s63 260 240 260c136 0 232 -4 320 -10zM340 341c-48 0 -70 -25 -70 -91c0 -76 24 -91 70 -91h10v182h-10z" />
    <glyph glyph-name="r" unicode="r" horiz-adv-x="473" 
d="M443 510l20 -191h-88c-47 0 -95 -58 -95 -130v-189h-240v500h240v-41c24 24 63 51 122 51h41z" />
    <glyph glyph-name="s" unicode="s" horiz-adv-x="571" 
d="M300 510c81 0 162 -10 229 -25l-21 -125c-69 15 -152 22 -208 22c-32 0 -40 -8 -40 -26c0 -17 4 -23 30 -26c158 -17 260 -37 260 -171c0 -135 -78 -169 -250 -169c-95 0 -177 4 -276 21l16 126c77 -10 175 -21 232 -21c29 0 38 6 38 16c0 15 -8 24 -40 29
c-147 23 -250 35 -250 195c0 113 100 154 280 154z" />
    <glyph glyph-name="t" unicode="t" horiz-adv-x="420" 
d="M10 340v160h50v120l240 20v-140h100v-160h-100v-154c0 -14 3 -35 28 -35c21 0 38 0 79 5l24 -147c-35 -8 -101 -19 -169 -19c-142 0 -202 32 -202 148v202h-50z" />
    <glyph glyph-name="u" unicode="u" horiz-adv-x="660" 
d="M40 500h240v-287c0 -44 23 -53 52 -53c19 0 35 4 48 10v330h240v-500h-240v22c-50 -14 -120 -32 -208 -32c-92 0 -132 61 -132 137v373z" />
    <glyph glyph-name="v" unicode="v" horiz-adv-x="639" 
d="M154 0l-144 500h259l47 -330h9l45 330h259l-143 -500h-332z" />
    <glyph glyph-name="w" unicode="w" horiz-adv-x="932" 
d="M104 0l-94 500h252l32 -306h4l48 306h240l48 -308h4l33 308h251l-95 -500h-312l-49 288l-50 -288h-312z" />
    <glyph glyph-name="x" unicode="x" horiz-adv-x="622" 
d="M263 500l52 -176l46 176h251l-109 -240l109 -260h-252l-51 175l-46 -175h-253l111 260l-111 240h253z" />
    <glyph glyph-name="y" unicode="y" horiz-adv-x="651" 
d="M250 -26l14 27c-53 0 -130 40 -153 123l-104 376h268l54 -351l51 351h261l-166 -555c-23 -43 -48 -80 -76 -107c-46 -45 -105 -68 -185 -68c-65 0 -154 21 -204 35l32 159c43 -12 123 -26 141 -26c33 0 49 3 67 36z" />
    <glyph glyph-name="z" unicode="z" horiz-adv-x="510" 
d="M24 340v160h444v-113l-133 -226h155v-161h-470v113l143 227h-139z" />
    <glyph glyph-name="braceleft" unicode="{" horiz-adv-x="550" 
d="M500 588h-71c-20 0 -32 -10 -32 -30v-142c0 -47 -38 -62 -64 -67c26 -11 65 -51 65 -98v-147c0 -20 11 -30 31 -30h71v-214h-90c-170 0 -272 52 -272 199v149c0 17 -8 30 -25 30h-63v213h63c17 0 25 13 25 30v115c0 155 109 204 272 204h90v-212z" />
    <glyph glyph-name="bar" unicode="|" horiz-adv-x="360" 
d="M50 750h260v-1001h-260v1001z" />
    <glyph glyph-name="braceright" unicode="}" horiz-adv-x="550" 
d="M121 588h-71v212h90c163 0 272 -49 272 -204v-115c0 -17 8 -30 25 -30h63v-213h-63c-17 0 -25 -13 -25 -30v-149c0 -147 -102 -199 -272 -199h-90v214h71c20 0 31 10 31 30v147c0 47 39 87 65 98c-26 5 -65 20 -65 67v142c0 20 -11 30 -31 30z" />
    <glyph glyph-name="asciitilde" unicode="~" horiz-adv-x="783" 
d="M142 233l-72 214c42 31 102 74 171 74c122 0 177 -47 278 -47c45 0 110 29 141 47l93 -213c-33 -30 -100 -89 -180 -89c-134 0 -184 47 -278 47c-55 0 -123 -20 -153 -33z" />
    <glyph glyph-name="sterling" unicode="&#xa3;" horiz-adv-x="944" 
d="M748 669l-44 -176c-1 1 -138 24 -208 24c-48 0 -70 -21 -70 -65v-16h210v-152h-210v-65c17 -3 32 -7 47 -11c44 -12 80 -26 130 -26c58 0 153 28 175 38l76 -164c-33 -24 -109 -66 -251 -66c-137 0 -160 44 -288 44c-38 0 -133 -11 -193 -33l-52 166c23 10 57 23 96 33
v85h-56v151h56v41c0 171 149 233 330 233c124 0 239 -36 252 -41z" />
    <glyph glyph-name="section" unicode="&#xa7;" horiz-adv-x="800" 
d="M400 699c125 0 244 -19 323 -32l-46 -158c-73 13 -169 33 -277 33c-76 0 -90 -16 -90 -29c0 -19 72 -38 136 -54c111 -28 304 -55 304 -212c0 -61 -37 -99 -84 -127c60 -36 84 -79 84 -130c0 -136 -174 -190 -350 -190c-134 0 -266 19 -323 32l46 159
c77 -19 237 -34 277 -34c80 0 90 15 90 33c0 32 -99 43 -153 53c-102 19 -287 56 -287 210c0 52 39 96 85 125c-56 28 -85 79 -85 132c0 129 171 189 350 189zM310 253c0 -29 28 -41 95 -58c49 20 85 40 85 52c0 22 -14 41 -94 56c-49 -15 -86 -34 -86 -50z" />
    <glyph glyph-name="dieresis" unicode="&#xa8;" horiz-adv-x="534" 
d="M40 730h201v-167h-201v167zM292 730h202v-167h-202v167z" />
    <glyph glyph-name="copyright" unicode="&#xa9;" horiz-adv-x="1010" 
d="M505 710c327 0 455 -199 455 -455s-128 -455 -455 -455s-455 199 -455 455s128 455 455 455zM763 256c0 218 -74 294 -258 294c-152 0 -258 -76 -258 -294c0 -246 133 -291 258 -291c165 0 258 45 258 291zM642 181l21 -149s-78 -21 -126 -21c-114 0 -229 47 -229 202v85
c0 153 116 202 229 202c48 0 126 -20 126 -20l-28 -150s-74 14 -98 14c-31 0 -52 -20 -52 -48v-81c0 -27 14 -48 52 -48c24 0 105 14 105 14z" />
    <glyph glyph-name="guillemotleft" unicode="&#xab;" horiz-adv-x="657" 
d="M50 265l119 204h198l-96 -204l94 -213h-204zM310 265l119 204h198l-96 -204l94 -213h-204z" />
    <glyph glyph-name="registered" unicode="&#xae;" horiz-adv-x="600" 
d="M255 710c148 0 205 -90 205 -205c0 -116 -57 -205 -205 -205c-147 0 -205 89 -205 205c0 115 58 205 205 205zM369 504c0 96 -33 129 -114 129c-65 0 -111 -33 -111 -129c0 -107 58 -126 111 -126c73 0 114 19 114 126zM275 416l-22 63h-5v-63h-68v182h78
c62 0 86 -16 86 -65c0 -33 -11 -49 -28 -52l33 -65h-74zM248 548v-31h13c11 0 15 5 15 16c0 9 -3 15 -15 15h-13z" />
    <glyph glyph-name="degree" unicode="&#xb0;" horiz-adv-x="600" 
d="M300 720c137 0 250 -113 250 -250s-113 -250 -250 -250s-250 113 -250 250s113 250 250 250zM372 470c0 40 -32 72 -72 72s-71 -32 -71 -72s31 -71 71 -71s72 31 72 71z" />
    <glyph glyph-name="plusminus" unicode="&#xb1;" horiz-adv-x="600" 
d="M190 700h220v-140h140v-190h-140v-140h-220v140h-140v190h140v140zM50 0v190h500v-190h-500z" />
    <glyph glyph-name="acute" unicode="&#xb4;" horiz-adv-x="318" 
d="M40 570v180h238l-96 -202z" />
    <glyph glyph-name="paragraph" unicode="&#xb6;" horiz-adv-x="890" 
d="M800 700l40 -260h-90v-525l-200 -32v557h-76v-562l-200 -28v410h-17c-130 0 -207 71 -207 220s77 220 207 220h543z" />
    <glyph glyph-name="periodcentered" unicode="&#xb7;" horiz-adv-x="292" 
d="M50 250c0 53 27 97 95 97s97 -44 97 -97s-29 -95 -97 -95s-95 42 -95 95z" />
    <glyph glyph-name="guillemotright" unicode="&#xbb;" horiz-adv-x="657" 
d="M406 265l-96 204h198l119 -204l-111 -213h-204zM146 265l-96 204h198l119 -204l-111 -213h-204z" />
    <glyph glyph-name="Agrave" unicode="&#xc0;" 
d="M478 0l-19 100h-156l-20 -100h-273l210 700h329l201 -700h-272zM387 457l-50 -187h89zM499 949v-176l-162 -22l-76 198h238z" />
    <glyph glyph-name="Aacute" unicode="&#xc1;" 
d="M478 0l-19 100h-156l-20 -100h-273l210 700h329l201 -700h-272zM387 457l-50 -187h89zM261 770v180h238l-96 -202z" />
    <glyph glyph-name="Acircumflex" unicode="&#xc2;" 
d="M478 0l-19 100h-156l-20 -100h-273l210 700h329l201 -700h-272zM387 457l-50 -187h89zM272 935h205l107 -152h-177l-29 77l-26 -77h-177z" />
    <glyph glyph-name="Atilde" unicode="&#xc3;" 
d="M478 0l-19 100h-156l-20 -100h-273l210 700h329l201 -700h-272zM387 457l-50 -187h89zM183 795l-42 113c39 29 93 66 161 66c76 0 99 -57 159 -57c43 0 66 24 101 43l56 -104c-28 -31 -85 -84 -157 -84c-87 0 -110 57 -159 57c-48 0 -85 -22 -119 -34z" />
    <glyph glyph-name="Adieresis" unicode="&#xc4;" 
d="M478 0l-19 100h-156l-20 -100h-273l210 700h329l201 -700h-272zM387 457l-50 -187h89zM153 930h201v-167h-201v167zM405 930h202v-167h-202v167z" />
    <glyph glyph-name="Egrave" unicode="&#xc8;" horiz-adv-x="590" 
d="M310 260v-62h250v-198h-510v700h510v-198h-250v-62h190v-180h-190zM414 949v-176l-162 -22l-76 198h238z" />
    <glyph glyph-name="Eacute" unicode="&#xc9;" horiz-adv-x="590" 
d="M310 260v-62h250v-198h-510v700h510v-198h-250v-62h190v-180h-190zM176 770v180h238l-96 -202z" />
    <glyph glyph-name="Ecircumflex" unicode="&#xca;" horiz-adv-x="590" 
d="M310 260v-62h250v-198h-510v700h510v-198h-250v-62h190v-180h-190zM187 935h205l107 -152h-177l-29 77l-26 -77h-177z" />
    <glyph glyph-name="Edieresis" unicode="&#xcb;" horiz-adv-x="590" 
d="M310 260v-62h250v-198h-510v700h510v-198h-250v-62h190v-180h-190zM68 930h201v-167h-201v167zM320 930h202v-167h-202v167z" />
    <glyph glyph-name="Igrave" unicode="&#xcc;" horiz-adv-x="480" 
d="M20 500v200h430v-200h-85v-300h95v-200h-430v200h75v300h-85zM359 949v-176l-162 -22l-76 198h238z" />
    <glyph glyph-name="Iacute" unicode="&#xcd;" horiz-adv-x="480" 
d="M20 500v200h430v-200h-85v-300h95v-200h-430v200h75v300h-85zM121 770v180h238l-96 -202z" />
    <glyph glyph-name="Icircumflex" unicode="&#xce;" horiz-adv-x="480" 
d="M20 500v200h430v-200h-85v-300h95v-200h-430v200h75v300h-85zM133 935h205l107 -152h-177l-29 77l-26 -77h-177z" />
    <glyph glyph-name="Idieresis" unicode="&#xcf;" horiz-adv-x="480" 
d="M20 500v200h430v-200h-85v-300h95v-200h-430v200h75v300h-85zM13 930h201v-167h-201v167zM265 930h202v-167h-202v167z" />
    <glyph glyph-name="Ograve" unicode="&#xd2;" 
d="M30 267v156c0 225 150 287 350 287s350 -62 350 -287v-156c0 -225 -150 -277 -350 -277s-350 52 -350 277zM300 400v-100c0 -64 4 -110 80 -110s80 46 80 110v100c0 64 -4 110 -80 110c-77 0 -80 -47 -80 -110zM499 949v-176l-162 -22l-76 198h238z" />
    <glyph glyph-name="Oacute" unicode="&#xd3;" 
d="M30 267v156c0 225 150 287 350 287s350 -62 350 -287v-156c0 -225 -150 -277 -350 -277s-350 52 -350 277zM300 400v-100c0 -64 4 -110 80 -110s80 46 80 110v100c0 64 -4 110 -80 110c-77 0 -80 -47 -80 -110zM261 770v180h238l-96 -202z" />
    <glyph glyph-name="Ocircumflex" unicode="&#xd4;" 
d="M30 267v156c0 225 150 287 350 287s350 -62 350 -287v-156c0 -225 -150 -277 -350 -277s-350 52 -350 277zM300 400v-100c0 -64 4 -110 80 -110s80 46 80 110v100c0 64 -4 110 -80 110c-77 0 -80 -47 -80 -110zM272 935h205l107 -152h-177l-29 77l-26 -77h-177z" />
    <glyph glyph-name="Otilde" unicode="&#xd5;" 
d="M30 267v156c0 225 150 287 350 287s350 -62 350 -287v-156c0 -225 -150 -277 -350 -277s-350 52 -350 277zM300 400v-100c0 -64 4 -110 80 -110s80 46 80 110v100c0 64 -4 110 -80 110c-77 0 -80 -47 -80 -110zM183 795l-42 113c39 29 93 66 161 66c76 0 99 -57 159 -57
c43 0 66 24 101 43l56 -104c-28 -31 -85 -84 -157 -84c-87 0 -110 57 -159 57c-48 0 -85 -22 -119 -34z" />
    <glyph glyph-name="Odieresis" unicode="&#xd6;" 
d="M30 267v156c0 225 150 287 350 287s350 -62 350 -287v-156c0 -225 -150 -277 -350 -277s-350 52 -350 277zM300 400v-100c0 -64 4 -110 80 -110s80 46 80 110v100c0 64 -4 110 -80 110c-77 0 -80 -47 -80 -110zM153 930h201v-167h-201v167zM405 930h202v-167h-202v167z
" />
    <glyph glyph-name="Ugrave" unicode="&#xd9;" horiz-adv-x="730" 
d="M440 700h240v-450c0 -200 -142 -260 -308 -260c-202 0 -322 60 -322 260v450h270v-460c0 -40 12 -50 62 -50s58 10 58 50v460zM484 949v-176l-162 -22l-76 198h238z" />
    <glyph glyph-name="Uacute" unicode="&#xda;" horiz-adv-x="730" 
d="M440 700h240v-450c0 -200 -142 -260 -308 -260c-202 0 -322 60 -322 260v450h270v-460c0 -40 12 -50 62 -50s58 10 58 50v460zM246 770v180h238l-96 -202z" />
    <glyph glyph-name="Ucircumflex" unicode="&#xdb;" horiz-adv-x="730" 
d="M440 700h240v-450c0 -200 -142 -260 -308 -260c-202 0 -322 60 -322 260v450h270v-460c0 -40 12 -50 62 -50s58 10 58 50v460zM257 935h205l107 -152h-177l-29 77l-26 -77h-177z" />
    <glyph glyph-name="Udieresis" unicode="&#xdc;" horiz-adv-x="730" 
d="M440 700h240v-450c0 -200 -142 -260 -308 -260c-202 0 -322 60 -322 260v450h270v-460c0 -40 12 -50 62 -50s58 10 58 50v460zM155 930h201v-167h-201v167zM407 930h202v-167h-202v167z" />
    <glyph glyph-name="agrave" unicode="&#xe0;" horiz-adv-x="600" 
d="M72 346l-25 132c43 11 122 32 222 32c163 0 291 -40 291 -196v-314h-240v30c-34 -24 -87 -40 -145 -40c-89 0 -145 41 -145 158c0 109 58 145 190 145h102v11c0 30 -8 61 -66 61c-44 0 -140 -11 -184 -19zM419 749v-176l-162 -22l-76 198h238zM304 113h16v81l-28 -2
c-15 -5 -22 -20 -22 -40c0 -21 11 -39 34 -39z" />
    <glyph glyph-name="aacute" unicode="&#xe1;" horiz-adv-x="600" 
d="M72 346l-25 132c43 11 122 32 222 32c163 0 291 -40 291 -196v-314h-240v30c-34 -24 -87 -40 -145 -40c-89 0 -145 41 -145 158c0 109 58 145 190 145h102v11c0 30 -8 61 -66 61c-44 0 -140 -11 -184 -19zM181 570v180h238l-96 -202zM304 113h16v81l-28 -2
c-15 -5 -22 -20 -22 -40c0 -21 11 -39 34 -39z" />
    <glyph glyph-name="acircumflex" unicode="&#xe2;" horiz-adv-x="600" 
d="M72 346l-25 132c43 11 122 32 222 32c163 0 291 -40 291 -196v-314h-240v30c-34 -24 -87 -40 -145 -40c-89 0 -145 41 -145 158c0 109 58 145 190 145h102v11c0 30 -8 61 -66 61c-44 0 -140 -11 -184 -19zM192 735h205l107 -152h-177l-29 77l-26 -77h-177zM304 113h16v81
l-28 -2c-15 -5 -22 -20 -22 -40c0 -21 11 -39 34 -39z" />
    <glyph glyph-name="atilde" unicode="&#xe3;" horiz-adv-x="600" 
d="M72 346l-25 132c43 11 122 32 222 32c163 0 291 -40 291 -196v-314h-240v30c-34 -24 -87 -40 -145 -40c-89 0 -145 41 -145 158c0 109 58 145 190 145h102v11c0 30 -8 61 -66 61c-44 0 -140 -11 -184 -19zM103 595l-42 113c39 29 93 66 161 66c76 0 99 -57 159 -57
c43 0 66 24 101 43l56 -104c-28 -31 -85 -84 -157 -84c-87 0 -110 57 -159 57c-48 0 -85 -22 -119 -34zM304 113h16v81l-28 -2c-15 -5 -22 -20 -22 -40c0 -21 11 -39 34 -39z" />
    <glyph glyph-name="adieresis" unicode="&#xe4;" horiz-adv-x="600" 
d="M72 346l-25 132c43 11 122 32 222 32c163 0 291 -40 291 -196v-314h-240v30c-34 -24 -87 -40 -145 -40c-89 0 -145 41 -145 158c0 109 58 145 190 145h102v11c0 30 -8 61 -66 61c-44 0 -140 -11 -184 -19zM325 730h202v-167h-202v167zM73 730h201v-167h-201v167zM304 113
h16v81l-28 -2c-15 -5 -22 -20 -22 -40c0 -21 11 -39 34 -39z" />
    <glyph glyph-name="egrave" unicode="&#xe8;" horiz-adv-x="601" 
d="M543 145l22 -138c-61 -9 -151 -17 -255 -17c-125 0 -280 36 -280 211v64c0 175 93 245 280 245c120 0 271 -26 271 -199v-113h-311v-15c0 -50 37 -51 70 -51c53 0 164 7 203 13zM270 320v-18h92v17c0 52 -23 63 -52 63c-30 0 -40 -11 -40 -62zM419 749v-176l-162 -22
l-76 198h238z" />
    <glyph glyph-name="eacute" unicode="&#xe9;" horiz-adv-x="601" 
d="M543 145l22 -138c-61 -9 -151 -17 -255 -17c-125 0 -280 36 -280 211v64c0 175 93 245 280 245c120 0 271 -26 271 -199v-113h-311v-15c0 -47 31 -51 70 -51c53 0 164 7 203 13zM270 320v-18h92v17c0 52 -23 63 -52 63c-30 0 -40 -11 -40 -62zM181 570v180h238l-96 -202z
" />
    <glyph glyph-name="ecircumflex" unicode="&#xea;" horiz-adv-x="601" 
d="M543 145l22 -138c-61 -9 -151 -17 -255 -17c-125 0 -280 36 -280 211v64c0 175 93 245 280 245c120 0 271 -26 271 -199v-113h-311v-15c0 -50 40 -51 70 -51c53 0 164 7 203 13zM270 320v-18h92v17c0 52 -23 63 -52 63c-30 0 -40 -11 -40 -62zM193 735h205l107 -152h-177
l-29 77l-26 -77h-177z" />
    <glyph glyph-name="edieresis" unicode="&#xeb;" horiz-adv-x="601" 
d="M543 145l22 -138c-61 -9 -151 -17 -255 -17c-125 0 -280 36 -280 211v64c0 175 93 245 280 245c120 0 271 -26 271 -199v-113h-311v-15c0 -49 35 -51 70 -51c53 0 164 7 203 13zM270 320v-18h92v17c0 52 -23 63 -52 63c-30 0 -40 -11 -40 -62zM73 730h201v-167h-201v167z
M325 730h202v-167h-202v167z" />
    <glyph glyph-name="igrave" unicode="&#xec;" horiz-adv-x="320" 
d="M40 500h240v-500h-240v500zM279 749v-176l-162 -22l-76 198h238z" />
    <glyph glyph-name="iacute" unicode="&#xed;" horiz-adv-x="320" 
d="M40 500h240v-500h-240v500zM41 570v180h238l-96 -202z" />
    <glyph glyph-name="icircumflex" unicode="&#xee;" horiz-adv-x="320" 
d="M40 500h240v-500h-240v500zM53 735h205l107 -152h-177l-29 77l-26 -77h-177z" />
    <glyph glyph-name="idieresis" unicode="&#xef;" horiz-adv-x="320" 
d="M40 500h240v-500h-240v500zM-67 730h201v-167h-201v167zM185 730h202v-167h-202v167z" />
    <glyph glyph-name="ograve" unicode="&#xf2;" horiz-adv-x="610" 
d="M424 749v-176l-162 -22l-76 198h238zM20 210v78c0 150 95 221 280 221s290 -71 290 -221v-78c0 -150 -105 -221 -290 -221s-280 71 -280 221zM250 308v-94c0 -43 2 -86 50 -86s50 45 50 86v70c0 41 0 86 -50 86c-40 0 -50 -29 -50 -62z" />
    <glyph glyph-name="oacute" unicode="&#xf3;" horiz-adv-x="610" 
d="M186 570v180h238l-96 -202zM20 210v78c0 150 95 221 280 221s290 -71 290 -221v-78c0 -150 -105 -221 -290 -221s-280 71 -280 221zM250 308v-94c0 -43 2 -86 50 -86s50 45 50 86v70c0 41 0 86 -50 86c-40 0 -50 -29 -50 -62z" />
    <glyph glyph-name="ocircumflex" unicode="&#xf4;" horiz-adv-x="610" 
d="M197 735h205l107 -152h-177l-29 77l-26 -77h-177zM20 210v78c0 150 95 221 280 221s290 -71 290 -221v-78c0 -150 -105 -221 -290 -221s-280 71 -280 221zM250 308v-94c0 -43 2 -86 50 -86s50 45 50 86v70c0 41 0 86 -50 86c-40 0 -50 -29 -50 -62z" />
    <glyph glyph-name="otilde" unicode="&#xf5;" horiz-adv-x="610" 
d="M108 595l-42 113c39 29 93 66 161 66c76 0 99 -57 159 -57c43 0 66 24 101 43l56 -104c-28 -31 -85 -84 -157 -84c-87 0 -110 57 -159 57c-48 0 -85 -22 -119 -34zM20 210v78c0 150 95 221 280 221s290 -71 290 -221v-78c0 -150 -105 -221 -290 -221s-280 71 -280 221z
M250 308v-94c0 -43 2 -86 50 -86s50 45 50 86v70c0 41 0 86 -50 86c-40 0 -50 -29 -50 -62z" />
    <glyph glyph-name="odieresis" unicode="&#xf6;" horiz-adv-x="610" 
d="M78 730h201v-167h-201v167zM330 730h202v-167h-202v167zM20 210v78c0 150 95 221 280 221s290 -71 290 -221v-78c0 -150 -105 -221 -290 -221s-280 71 -280 221zM250 308v-94c0 -43 2 -86 50 -86s50 45 50 86v70c0 41 0 86 -50 86c-40 0 -50 -29 -50 -62z" />
    <glyph glyph-name="ugrave" unicode="&#xf9;" horiz-adv-x="660" 
d="M449 749v-176l-162 -22l-76 198h238zM40 500h240v-287c0 -44 23 -53 52 -53c19 0 35 4 48 10v330h240v-500h-240v22c-50 -14 -120 -32 -208 -32c-92 0 -132 61 -132 137v373z" />
    <glyph glyph-name="uacute" unicode="&#xfa;" horiz-adv-x="660" 
d="M211 570v180h238l-96 -202zM40 500h240v-287c0 -44 23 -53 52 -53c19 0 35 4 48 10v330h240v-500h-240v22c-50 -14 -120 -32 -208 -32c-92 0 -132 61 -132 137v373z" />
    <glyph glyph-name="ucircumflex" unicode="&#xfb;" horiz-adv-x="660" 
d="M222 735h205l107 -152h-177l-29 77l-26 -77h-177zM40 500h240v-287c0 -44 23 -53 52 -53c19 0 35 4 48 10v330h240v-500h-240v22c-50 -14 -120 -32 -208 -32c-92 0 -132 61 -132 137v373z" />
    <glyph glyph-name="udieresis" unicode="&#xfc;" horiz-adv-x="660" 
d="M103 730h201v-167h-201v167zM355 730h202v-167h-202v167zM40 500h240v-287c0 -44 23 -53 52 -53c19 0 35 4 48 10v330h240v-500h-240v22c-50 -14 -120 -32 -208 -32c-92 0 -132 61 -132 137v373z" />
    <glyph glyph-name="circumflex" unicode="&#x2c6;" horiz-adv-x="539" 
d="M167 735h205l107 -152h-177l-29 77l-26 -77h-177z" />
    <glyph glyph-name="tilde" unicode="&#x2dc;" horiz-adv-x="587" 
d="M102 595l-42 113c39 29 93 66 161 66c76 0 99 -57 159 -57c43 0 66 24 101 43l56 -104c-28 -31 -85 -84 -157 -84c-87 0 -110 57 -159 57c-48 0 -85 -22 -119 -34z" />
    <glyph glyph-name="afii10023" unicode="&#x401;" horiz-adv-x="610" 
d="M310 260v-62h250v-198h-510v700h510v-198h-250v-62h190v-180h-190zM78 930h201v-167h-201v167zM330 930h202v-167h-202v167z" />
    <glyph glyph-name="afii10017" unicode="&#x410;" 
d="M478 0l-19 100h-156l-20 -100h-273l210 700h329l201 -700h-272zM387 457l-50 -187h89z" />
    <glyph glyph-name="afii10018" unicode="&#x411;" horiz-adv-x="690" 
d="M310 500v-62h143c138 0 197 -68 197 -218s-59 -220 -200 -220h-400v700h550v-200h-290zM370 261h-60v-82h60c20 0 30 20 30 41s-10 41 -30 41z" />
    <glyph glyph-name="afii10019" unicode="&#x412;" horiz-adv-x="670" 
d="M50 0v700h360c110 0 200 -27 200 -180c0 -85 -44 -122 -83 -136c43 -11 103 -35 103 -174c0 -155 -60 -210 -200 -210h-380zM300 270v-100h60c20 0 30 30 30 50s-10 50 -30 50h-60zM340 530h-40v-90h40c20 0 30 30 30 50s-10 40 -30 40z" />
    <glyph glyph-name="afii10020" unicode="&#x413;" horiz-adv-x="580" 
d="M310 0h-260v700h510v-230h-250v-470z" />
    <glyph glyph-name="afii10021" unicode="&#x414;" horiz-adv-x="850" 
d="M160 700h580v-500h80l-20 -400h-240v200h-280l-10 -200h-250v400h76c64 120 64 391 64 500zM480 480h-79c-7 -94 -16 -203 -55 -280h134v280z" />
    <glyph glyph-name="afii10022" unicode="&#x415;" horiz-adv-x="610" 
d="M310 260v-62h250v-198h-510v700h510v-198h-250v-62h190v-180h-190z" />
    <glyph glyph-name="afii10024" unicode="&#x416;" horiz-adv-x="1032" 
d="M144 375l-124 325h272l77 -291h17v291h260v-291h17l77 291h272l-124 -325l120 -375h-263l-83 337h-16v-337h-260v337h-17l-84 -337h-263z" />
    <glyph glyph-name="afii10025" unicode="&#x417;" horiz-adv-x="630" 
d="M30 22l30 187c56 -10 115 -27 177 -27c65 0 93 8 93 44c0 34 -23 48 -137 48h-79v160h120c61 0 69 19 69 43c0 29 -18 40 -69 40c-61 0 -118 -14 -167 -23l-32 188c32 10 108 28 211 28c216 0 307 -35 307 -175c0 -101 -44 -130 -92 -148c76 -22 129 -62 129 -180
c0 -191 -128 -217 -353 -217c-94 0 -178 19 -207 32z" />
    <glyph glyph-name="afii10026" unicode="&#x418;" horiz-adv-x="770" 
d="M50 700h260v-310l206 310h204v-700h-260v310l-206 -310h-204v700z" />
    <glyph glyph-name="afii10027" unicode="&#x419;" horiz-adv-x="770" 
d="M142 900h179c0 -26 16 -46 64 -46c46 0 66 18 66 46h179v-25c0 -127 -128 -135 -245 -135s-243 8 -243 135v25zM50 700h260v-310l206 310h204v-700h-260v310l-206 -310h-204v700z" />
    <glyph glyph-name="afii10028" unicode="&#x41a;" horiz-adv-x="725" 
d="M310 700v-292h16l87 292h293l-136 -323l145 -377h-285l-102 320h-18v-320h-260v700h260z" />
    <glyph glyph-name="afii10029" unicode="&#x41b;" horiz-adv-x="805" 
d="M155 700h600v-700h-260v470h-103c-13 -393 -71 -480 -267 -480c-29 0 -61 4 -85 10l-30 203s17 0 38 3c102 15 107 215 107 494z" />
    <glyph glyph-name="afii10030" unicode="&#x41c;" horiz-adv-x="1003" 
d="M300 390l-20 -390h-250l56 700h301l115 -410l114 410h301l56 -700h-250l-19 390l-102 -390h-200z" />
    <glyph glyph-name="afii10031" unicode="&#x41d;" horiz-adv-x="790" 
d="M480 700h260v-700h-260v260h-170v-260h-260v700h260v-240h170v240z" />
    <glyph glyph-name="afii10032" unicode="&#x41e;" 
d="M30 267v156c0 225 150 287 350 287s350 -62 350 -287v-156c0 -225 -150 -277 -350 -277s-350 52 -350 277zM300 400v-100c0 -64 4 -110 80 -110s80 46 80 110v100c0 64 -4 110 -80 110c-77 0 -80 -47 -80 -110z" />
    <glyph glyph-name="afii10033" unicode="&#x41f;" horiz-adv-x="790" 
d="M310 0h-260v700h690v-700h-260v480h-170v-480z" />
    <glyph glyph-name="afii10034" unicode="&#x420;" horiz-adv-x="700" 
d="M50 700h290c239 0 330 -77 330 -277s-91 -274 -330 -274h-30v-149h-260v700zM310 499v-150h30c45 0 69 15 69 76s-21 74 -69 74h-30z" />
    <glyph glyph-name="afii10035" unicode="&#x421;" horiz-adv-x="582" 
d="M520 240l32 -220s-116 -30 -186 -30c-167 0 -336 70 -336 297v126c0 225 170 297 336 297c70 0 186 -30 186 -30l-42 -220s-108 20 -144 20c-46 0 -76 -30 -76 -70v-120c0 -40 20 -70 76 -70c36 0 154 20 154 20z" />
    <glyph glyph-name="afii10036" unicode="&#x422;" horiz-adv-x="600" 
d="M10 470v230h580v-230h-160v-470h-260v470h-160z" />
    <glyph glyph-name="afii10037" unicode="&#x423;" horiz-adv-x="729" 
d="M309 218c-39 0 -138 21 -185 121l-114 361h302l74 -337h5l58 337h270l-164 -542c-58 -145 -209 -168 -296 -168c-64 0 -160 8 -227 26l42 185c44 -13 78 -20 117 -20c50 0 106 0 118 37z" />
    <glyph glyph-name="afii10038" unicode="&#x424;" horiz-adv-x="1000" 
d="M370 740h260v-60h10c229 0 330 -79 330 -285v-50c0 -206 -101 -285 -330 -285h-10v-60h-260v60h-10c-229 0 -330 79 -330 285v50c0 206 101 285 330 285h10v60zM640 499h-10v-258h10c56 0 70 25 70 104v50c0 71 -10 104 -70 104zM290 345c0 -79 14 -104 70 -104h10v257
h-10c-60 0 -70 -32 -70 -103v-50z" />
    <glyph glyph-name="afii10039" unicode="&#x425;" horiz-adv-x="780" 
d="M320 700l70 -236l69 236h311l-170 -350l170 -350h-311l-69 235l-70 -235h-310l169 350l-169 350h310z" />
    <glyph glyph-name="afii10040" unicode="&#x426;" horiz-adv-x="820" 
d="M50 700h260v-500h140v500h260v-500h80l-12 -328h-248v128h-480v700z" />
    <glyph glyph-name="afii10041" unicode="&#x427;" horiz-adv-x="720" 
d="M30 700h260v-260c0 -32 16 -50 44 -50c21 0 49 2 76 5v305h260v-700h-260v186c-35 -4 -69 -6 -94 -6c-60 0 -286 8 -286 240v280z" />
    <glyph glyph-name="afii10042" unicode="&#x428;" horiz-adv-x="1020" 
d="M380 700h260v-500h70v500h260v-700h-920v700h260v-500h70v500z" />
    <glyph glyph-name="afii10043" unicode="&#x429;" horiz-adv-x="1080" 
d="M380 700h260v-500h70v500h260v-500h80l-12 -328h-248v128h-740v700h260v-500h70v500z" />
    <glyph glyph-name="afii10044" unicode="&#x42a;" horiz-adv-x="782" 
d="M132 0v513h-122l20 187h362v-236c56 6 81 7 104 7c185 0 256 -86 256 -236c0 -170 -90 -235 -330 -235h-290zM422 297h-30v-127h30c48 0 69 11 69 63s-24 64 -69 64z" />
    <glyph glyph-name="afii10045" unicode="&#x42b;" horiz-adv-x="1040" 
d="M340 0h-290v700h260v-236c56 6 81 7 104 7c185 0 256 -86 256 -236c0 -170 -91 -235 -330 -235zM730 0v700h260v-700h-260zM340 297h-30v-127h30c48 0 69 11 69 63s-24 64 -69 64z" />
    <glyph glyph-name="afii10046" unicode="&#x42c;" horiz-adv-x="700" 
d="M340 0h-290v700h260v-236c56 6 81 7 104 7c185 0 256 -86 256 -236c0 -170 -91 -235 -330 -235zM340 297h-30v-127h30c48 0 69 11 69 63s-24 64 -69 64z" />
    <glyph glyph-name="afii10047" unicode="&#x42d;" horiz-adv-x="630" 
d="M339 255v18h-239v160h239v18c0 49 -35 59 -75 59c-38 0 -167 -18 -204 -30l-40 200s130 30 244 30c166 0 336 -72 336 -297v-126c0 -227 -170 -297 -336 -297c-104 0 -244 30 -244 30l40 200c36 -6 149 -20 204 -20c40 0 75 12 75 55z" />
    <glyph glyph-name="afii10048" unicode="&#x42e;" horiz-adv-x="1020" 
d="M380 208v52h-70v-260h-260v700h260v-270h70v49c0 170 139 231 305 231s305 -61 305 -281v-181c0 -220 -139 -258 -305 -258s-305 38 -305 218zM630 461v-220c0 -46 24 -61 55 -61s55 15 55 61v220c0 46 -26 59 -55 59s-55 -13 -55 -59z" />
    <glyph glyph-name="afii10049" unicode="&#x42f;" 
d="M370 700h340v-700h-260v179h-18l-90 -179h-282l127 208c-97 32 -144 121 -144 238c0 131 83 254 327 254zM370 359h80v130h-80c-48 0 -69 -24 -69 -64c0 -41 24 -66 69 -66z" />
    <glyph glyph-name="afii10065" unicode="&#x430;" horiz-adv-x="600" 
d="M72 346l-25 132c43 11 122 32 222 32c163 0 291 -40 291 -196v-314h-240v30c-34 -24 -87 -40 -145 -40c-89 0 -145 41 -145 158c0 109 58 145 190 145h102v11c0 30 -8 61 -66 61c-44 0 -140 -11 -184 -19zM304 113h16v81l-28 -2c-15 -5 -22 -20 -22 -40
c0 -21 11 -39 34 -39z" />
    <glyph glyph-name="afii10066" unicode="&#x431;" horiz-adv-x="644" 
d="M30 276v132c0 196 81 271 220 292l188 29c45 7 91 21 126 35l60 -190c-28 -15 -61 -25 -94 -28l-172 -16c-85 -8 -103 -55 -108 -104l-3 -29c19 26 75 70 180 70c98 0 183 -29 183 -204v-43c0 -175 -108 -232 -290 -232c-181 0 -290 55 -290 288zM320 153
c34 0 50 16 50 73v23c0 54 -16 71 -50 71c-40 0 -50 -20 -50 -71v-23c0 -57 10 -73 50 -73z" />
    <glyph glyph-name="afii10067" unicode="&#x432;" horiz-adv-x="600" 
d="M40 0v500h356c124 0 157 -38 157 -123c0 -66 -55 -85 -97 -93c57 -3 124 -12 124 -120c0 -119 -49 -164 -231 -164h-309zM313 217h-53v-91h60c22 0 40 20 40 48c0 22 -18 43 -47 43zM260 301h46c16 0 27 20 27 38c0 14 -11 37 -27 37h-46v-75z" />
    <glyph glyph-name="afii10068" unicode="&#x433;" horiz-adv-x="480" 
d="M280 0h-240v500h430v-180h-190v-320z" />
    <glyph glyph-name="afii10069" unicode="&#x434;" horiz-adv-x="740" 
d="M131 500h520v-340h59l-11 -320h-209v160h-250l-10 -160h-210v320h50c59 61 61 252 61 340zM411 360h-64c0 -73 -9 -137 -33 -200h97v200z" />
    <glyph glyph-name="afii10070" unicode="&#x435;" horiz-adv-x="601" 
d="M543 145l22 -138c-61 -9 -151 -17 -255 -17c-125 0 -280 36 -280 211v64c0 175 93 245 280 245c120 0 271 -26 271 -199v-113h-311v-15c0 -46 30 -51 70 -51c53 0 164 7 203 13zM270 320v-18h92v17c0 52 -23 63 -52 63c-30 0 -40 -11 -40 -62z" />
    <glyph glyph-name="afii10072" unicode="&#x436;" horiz-adv-x="904" 
d="M10 500h224l89 -215h15v215h230v-215h15l81 215h230l-101 -241l99 -259h-227l-83 236h-14v-236h-230v234h-13l-93 -234h-221l111 259z" />
    <glyph glyph-name="afii10073" unicode="&#x437;" horiz-adv-x="563" 
d="M30 15l24 127c12 -3 64 -8 118 -8c81 0 121 3 121 36c0 17 -13 27 -45 27h-149v112h123c23 0 44 7 44 31s-36 30 -94 30c-42 0 -75 -1 -118 -9l-24 127c37 9 128 21 186 21c187 0 291 -23 291 -119c0 -59 -44 -85 -87 -95c58 -10 123 -32 123 -130
c0 -131 -120 -173 -327 -173c-86 0 -157 13 -186 23z" />
    <glyph glyph-name="afii10074" unicode="&#x438;" horiz-adv-x="680" 
d="M40 500h240v-241l153 241h207v-500h-240v240l-152 -240h-208v500z" />
    <glyph glyph-name="afii10075" unicode="&#x439;" horiz-adv-x="680" 
d="M80 750h180c0 -21 17 -50 80 -50s80 29 80 50h180v-20c0 -129 -141 -160 -260 -160c-118 0 -260 31 -260 160v20zM40 500h240v-241l153 241h207v-500h-240v240l-152 -240h-208v500z" />
    <glyph glyph-name="afii10076" unicode="&#x43a;" horiz-adv-x="630" 
d="M280 500v-195h10l70 195h267l-126 -242l129 -258h-262l-79 217h-9v-217h-240v500h240z" />
    <glyph glyph-name="afii10077" unicode="&#x43b;" horiz-adv-x="694" 
d="M131 500h523v-500h-240v350h-77c0 -192 -9 -360 -206 -360c-17 0 -74 4 -100 10l-21 160h51c41 0 70 50 70 340z" />
    <glyph glyph-name="afii10078" unicode="&#x43c;" horiz-adv-x="864" 
d="M251 327l-9 -327h-212l37 500h280l85 -340l85 340h280l37 -500h-212l-9 327l-97 -327h-187z" />
    <glyph glyph-name="afii10079" unicode="&#x43d;" horiz-adv-x="680" 
d="M400 500h240v-500h-240v170h-120v-170h-240v500h240v-170h120v170z" />
    <glyph glyph-name="afii10080" unicode="&#x43e;" horiz-adv-x="610" 
d="M20 210v78c0 150 95 221 280 221s290 -71 290 -221v-78c0 -150 -105 -221 -290 -221s-280 71 -280 221zM250 308v-94c0 -43 2 -86 50 -86s50 45 50 86v70c0 41 0 86 -50 86c-40 0 -50 -29 -50 -62z" />
    <glyph glyph-name="afii10081" unicode="&#x43f;" horiz-adv-x="680" 
d="M280 0h-240v500h600v-500h-240v340h-120v-340z" />
    <glyph glyph-name="afii10082" unicode="&#x440;" horiz-adv-x="630" 
d="M280 -200h-240v700h240v-30c23 15 69 46 145 46c103 0 175 -56 175 -266s-74 -250 -175 -250c-76 0 -105 18 -145 30v-230zM290 341h-10v-182c10 0 23 0 31 1c32 5 49 27 49 90c0 66 -22 91 -70 91z" />
    <glyph glyph-name="afii10083" unicode="&#x441;" horiz-adv-x="485" 
d="M445 163l30 -150c-54 -20 -145 -22 -168 -22c-147 0 -277 60 -277 222v72c0 139 130 226 277 226c26 0 114 -7 168 -26l-30 -150c0 2 -64 16 -85 16c-50 0 -80 -16 -80 -86v-32c0 -70 28 -85 80 -85c35 0 43 4 85 15z" />
    <glyph glyph-name="afii10084" unicode="&#x442;" horiz-adv-x="580" 
d="M20 320v180h540v-180h-148v-320h-240v320h-152z" />
    <glyph glyph-name="afii10085" unicode="&#x443;" horiz-adv-x="651" 
d="M250 -26l14 27c-67 0 -133 53 -153 123l-104 376h268l54 -351l51 351h261l-166 -555c-23 -43 -48 -80 -76 -107c-46 -45 -105 -68 -185 -68c-65 0 -154 21 -204 35l32 159c43 -12 123 -26 141 -26c33 0 48 1 67 36z" />
    <glyph glyph-name="afii10086" unicode="&#x444;" horiz-adv-x="940" 
d="M350 700h240v-210c20 10 87 20 110 20c154 0 220 -101 220 -260c0 -165 -66 -260 -220 -260c-23 0 -90 10 -110 20v-210h-240v210c-21 -10 -87 -20 -110 -20c-154 0 -220 90 -220 260c0 159 66 260 220 260c23 0 91 -10 110 -20v210zM597 360h-7v-221h7
c48 0 83 34 83 111c0 87 -40 110 -83 110zM341 139h9v221h-9c-53 0 -81 -38 -81 -110c0 -90 48 -110 81 -111z" />
    <glyph glyph-name="afii10087" unicode="&#x445;" horiz-adv-x="622" 
d="M263 500l52 -176l46 176h251l-109 -240l109 -260h-252l-51 175l-46 -175h-253l111 260l-111 240h253z" />
    <glyph glyph-name="afii10088" unicode="&#x446;" horiz-adv-x="710" 
d="M40 500h240v-340h100v340h240v-340h60l-13 -320h-227v160h-400v500z" />
    <glyph glyph-name="afii10089" unicode="&#x447;" horiz-adv-x="640" 
d="M30 500h240v-180c0 -38 14 -50 40 -50c14 0 26 2 50 5v225h240v-500h-240v120c-42 -6 -87 -10 -131 -10c-136 0 -199 65 -199 238v152z" />
    <glyph glyph-name="afii10090" unicode="&#x448;" horiz-adv-x="920" 
d="M350 500h220v-340h80v340h230v-500h-840v500h230v-340h80v340z" />
    <glyph glyph-name="afii10091" unicode="&#x449;" horiz-adv-x="970" 
d="M40 0v500h230v-340h80v340h220v-340h80v340h230v-340h60l-12 -320h-228v160h-660z" />
    <glyph glyph-name="afii10092" unicode="&#x44a;" horiz-adv-x="730" 
d="M10 355l20 145h350v-137c71 6 92 6 111 6c140 0 209 -37 209 -181c0 -158 -119 -188 -301 -188h-259v355h-130zM413 236h-33v-101h40c22 0 40 21 40 53c0 25 -18 48 -47 48z" />
    <glyph glyph-name="afii10093" unicode="&#x44b;" horiz-adv-x="927" 
d="M647 0v500h240v-500h-240zM40 0v500h240v-137c71 5 92 6 111 6c140 0 209 -37 209 -181c0 -158 -119 -188 -301 -188h-259zM313 236h-33v-101h40c22 0 40 21 40 53c0 25 -18 48 -47 48z" />
    <glyph glyph-name="afii10094" unicode="&#x44c;" horiz-adv-x="630" 
d="M40 0v500h240v-137c71 5 92 6 111 6c140 0 209 -37 209 -181c0 -158 -119 -188 -301 -188h-259zM313 236h-33v-101h40c22 0 40 21 40 53c0 25 -18 48 -47 48z" />
    <glyph glyph-name="afii10095" unicode="&#x44d;" horiz-adv-x="520" 
d="M248 193v5h-158v110h158v7c0 45 -40 47 -91 47c-36 0 -54 -4 -96 -16l-31 132c54 19 127 32 190 32c150 0 270 -60 270 -225v-73c0 -163 -121 -222 -270 -222c-63 0 -145 10 -200 30l31 132c42 -11 70 -15 106 -15c52 0 91 11 91 56z" />
    <glyph glyph-name="afii10096" unicode="&#x44e;" horiz-adv-x="923" 
d="M329 170h-69v-170h-220v500h220v-190h67v15c0 130 149 184 282 184c157 0 284 -54 284 -231v-58c0 -177 -127 -231 -284 -231c-123 0 -280 53 -280 174v7zM562 283v-83c0 -33 7 -62 47 -62c36 0 46 29 46 62v83c0 48 -3 77 -46 77c-36 0 -47 -29 -47 -77z" />
    <glyph glyph-name="afii10097" unicode="&#x44f;" horiz-adv-x="650" 
d="M263 500h347v-500h-240v146h-18l-75 -146h-252l104 166c-45 8 -109 30 -109 151c0 123 68 183 243 183zM270 318c1 -31 13 -46 50 -46h50v92h-50c-37 0 -50 -15 -50 -46z" />
    <glyph glyph-name="afii10071" unicode="&#x451;" horiz-adv-x="601" 
d="M73 730h201v-167h-201v167zM325 730h202v-167h-202v167zM543 145l21 -136c-61 -9 -150 -19 -254 -19c-125 0 -280 36 -280 211v64c0 175 93 245 280 245c120 0 271 -26 271 -199v-113h-311v-15c0 -48 32 -51 70 -51c53 0 164 7 203 13zM270 320v-18h92v17
c0 52 -23 63 -52 63c-30 0 -40 -11 -40 -62z" />
    <glyph glyph-name="endash" unicode="&#x2013;" horiz-adv-x="600" 
d="M50 240v200h500v-200h-500z" />
    <glyph glyph-name="emdash" unicode="&#x2014;" horiz-adv-x="870" 
d="M50 240v200h770v-200h-770z" />
    <glyph glyph-name="quoteleft" unicode="&#x2018;" horiz-adv-x="340" 
d="M300 392h-260v124c0 88 77 193 150 234l81 -47c-32 -28 -51 -59 -51 -107h80v-204z" />
    <glyph glyph-name="quoteright" unicode="&#x2019;" horiz-adv-x="340" 
d="M40 700h260v-124c0 -88 -77 -193 -150 -234l-81 47c32 28 51 59 51 107h-80v204z" />
    <glyph glyph-name="quotesinglbase" unicode="&#x201a;" horiz-adv-x="340" 
d="M40 204h260v-124c0 -88 -77 -193 -150 -234l-81 47c32 28 51 59 51 107h-80v204z" />
    <glyph glyph-name="quotedblleft" unicode="&#x201c;" horiz-adv-x="640" 
d="M620 392h-260v124c0 88 77 193 150 234l81 -47c-32 -28 -51 -59 -51 -107h80v-204zM300 392h-260v124c0 88 77 193 150 234l81 -47c-32 -28 -51 -59 -51 -107h80v-204z" />
    <glyph glyph-name="quotedblright" unicode="&#x201d;" horiz-adv-x="640" 
d="M40 700h260v-124c0 -88 -77 -193 -150 -234l-81 47c32 28 51 59 51 107h-80v204zM360 700h260v-124c0 -88 -77 -193 -150 -234l-81 47c32 28 51 59 51 107h-80v204z" />
    <glyph glyph-name="quotedblbase" unicode="&#x201e;" horiz-adv-x="640" 
d="M40 204h260v-124c0 -88 -77 -193 -150 -234l-81 47c32 28 51 59 51 107h-80v204zM360 204h260v-124c0 -88 -77 -193 -150 -234l-81 47c32 28 51 59 51 107h-80v204z" />
    <glyph glyph-name="bullet" unicode="&#x2022;" horiz-adv-x="424" 
d="M50 266c0 89 46 163 160 163c115 0 164 -74 164 -163s-49 -161 -164 -161c-114 0 -160 72 -160 161z" />
    <glyph glyph-name="ellipsis" unicode="&#x2026;" horiz-adv-x="1020" 
d="M720 204h260v-204h-260v204zM380 204h260v-204h-260v204zM40 204h260v-204h-260v204z" />
    <glyph glyph-name="perthousand" unicode="&#x2030;" horiz-adv-x="1529" 
d="M859 -10c-114 0 -190 46 -190 177v55c0 131 78 182 190 182s190 -50 190 -182v-55c0 -130 -76 -177 -190 -177zM240 710c112 0 190 -50 190 -182v-55c0 -130 -76 -177 -190 -177s-190 46 -190 177v55c0 131 78 182 190 182zM205 538v-52c0 -46 2 -75 35 -75
c31 0 34 22 34 58v52c0 31 0 74 -34 74c-32 0 -35 -29 -35 -57zM859 289c-35 0 -35 -43 -35 -74v-52c0 -36 3 -58 35 -58c31 0 34 22 34 58v69c0 28 -3 57 -34 57zM811 700l-309 -700h-219l308 700h220zM1289 -10c-114 0 -190 46 -190 177v55c0 131 78 182 190 182
s190 -50 190 -182v-55c0 -130 -76 -177 -190 -177zM1289 289c-35 0 -35 -43 -35 -74v-52c0 -36 3 -58 35 -58c31 0 34 22 34 58v69c0 28 -3 57 -34 57z" />
    <glyph glyph-name="Euro" unicode="&#x20ac;" horiz-adv-x="712" 
d="M70 364l-20 116h65v7c0 173 149 223 298 223c119 0 249 -30 249 -30l-42 -180s-175 10 -186 10c-27 0 -64 -4 -64 -23v-7h247l-19 -116h-228v-26h224l-18 -116h-206v-8c0 -17 17 -24 70 -24c36 0 190 10 190 10l32 -180s-130 -30 -249 -30c-149 0 -298 45 -298 224v8h-45
l-20 116h60v26h-40z" />
    <glyph glyph-name="afii61352" unicode="&#x2116;" horiz-adv-x="1195" 
d="M819 700l23 -167h-80c-36 0 -92 -18 -92 -86v-447h-245l-145 298v-298h-230v700h253l137 -289v117c0 149 124 172 240 172h139zM715 307v21c0 113 72 167 211 167s219 -54 219 -167v-21c0 -113 -80 -166 -219 -166s-211 53 -211 166zM888 325v-15c0 -32 2 -64 38 -64
c37 0 38 33 38 64v15c0 31 -1 65 -38 65c-35 0 -38 -34 -38 -65z" />
    <glyph glyph-name="trademark" unicode="&#x2122;" horiz-adv-x="846" 
d="M35 585v115h290v-115h-80v-234h-130v234h-80zM470 543l-10 -192h-125l28 349h150l58 -205l57 205h150l28 -349h-125l-9 193l-51 -193h-100z" />
    <glyph glyph-name="nine.001" horiz-adv-x="640" 
d="M620 403v-107c0 -200 -136 -306 -318 -306c-117 0 -210 23 -273 40l40 186c36 -12 85 -20 133 -23c24 -2 47 -2 68 -2c72 0 89 28 89 78v21c-6 -2 -22 -8 -45 -13s-54 -9 -88 -9c-127 0 -206 49 -206 216c0 151 82 225 282 225s318 -74 318 -306zM359 428v43
c0 39 -7 58 -41 58c-23 0 -37 -15 -37 -44c0 -20 2 -64 36 -64c11 0 29 4 42 7z" />
    <glyph glyph-name="afii10070.001" horiz-adv-x="601" 
d="M543 145l22 -138c-61 -9 -151 -17 -255 -17c-125 0 -280 36 -280 211v64c0 175 93 245 280 245c120 0 271 -26 271 -199v-113h-311v-15c0 -40 20 -51 62 -51c53 0 172 7 211 13zM270 320v-18h92v17c0 52 -23 63 -52 63c-30 0 -40 -11 -40 -62z" />
    <glyph glyph-name="afii10035.001" horiz-adv-x="582" 
d="M520 240l32 -220s-116 -30 -186 -30c-167 0 -336 70 -336 297v126c0 225 170 297 336 297c70 0 186 -30 186 -30l-42 -220s-108 20 -144 20c-46 0 -76 -30 -76 -70v-120c0 -40 20 -70 76 -70c36 0 154 20 154 20z" />
    <glyph glyph-name="percent" unicode="%" horiz-adv-x="1099" 
d="M859 -10c-114 0 -190 46 -190 177v55c0 131 78 182 190 182s190 -50 190 -182v-55c0 -130 -76 -177 -190 -177zM240 710c112 0 190 -50 190 -182v-55c0 -130 -76 -177 -190 -177s-190 46 -190 177v55c0 131 78 182 190 182zM205 538v-52c0 -54 2 -75 35 -75
c31 0 34 22 34 58v52c0 43 -1 74 -34 74c-32 0 -35 -29 -35 -57zM859 289c-34 0 -35 -30 -35 -74v-52c0 -36 3 -58 35 -58c31 0 34 22 34 58v69c0 28 -3 57 -34 57zM811 700c-103 -233 -207 -467 -309 -700h-219c104 233 205 465 308 700h220z" />
    <glyph glyph-name="b.001" horiz-adv-x="620" 
d="M40 700h240v-230c20 12 39 22 60 29s44 11 72 11c124 0 188 -70 188 -260c0 -226 -82 -250 -320 -250h-240v700zM280 341v-192h16c42 0 64 35 64 101c0 49 -13 77 -40 87c-13 4 -24 4 -40 4z" />
    <glyph glyph-name="quotesinglbase.001" horiz-adv-x="340" 
d="M40 204h260v-124c0 -88 -77 -193 -150 -234l-81 47c32 28 51 59 51 107h-80v204z" />
    <glyph glyph-name="afii10028.001" horiz-adv-x="725" 
d="M310 700v-292h16c30 97 59 195 87 292h293c-46 -108 -92 -215 -136 -323c48 -126 96 -251 145 -377h-285c-34 107 -67 213 -102 320h-18v-320h-260v700h260z" />
    <glyph glyph-name="quoteright.001" horiz-adv-x="340" 
d="M40 700h260v-124c0 -88 -77 -193 -150 -234l-81 47c32 28 51 59 51 107h-80v204z" />
    <glyph glyph-name="quoteleft.001" horiz-adv-x="340" 
d="M300 389h-260v124c0 88 77 193 150 234l81 -47c-32 -28 -51 -59 -51 -107h80v-204z" />
    <glyph glyph-name=".null" horiz-adv-x="0" 
 />
    <glyph glyph-name="afii10039.001" horiz-adv-x="780" 
d="M320 700l70 -236l69 236h311l-170 -350l170 -350h-311l-69 235l-70 -235h-310l169 350l-169 350h310z" />
    <glyph glyph-name="quotedblright.001" horiz-adv-x="640" 
d="M340 700h260v-124c0 -88 -77 -193 -150 -234l-81 47c32 28 51 59 51 107h-80v204zM40 700h260v-124c0 -88 -77 -193 -150 -234l-81 47c32 28 51 59 51 107h-80v204z" />
    <glyph glyph-name="quotedblleft.001" horiz-adv-x="640" 
d="M600 389h-260v124c0 88 77 193 150 234l81 -47c-32 -28 -51 -59 -51 -107h80v-204zM300 389h-260v124c0 88 77 193 150 234l81 -47c-32 -28 -51 -59 -51 -107h80v-204z" />
    <glyph glyph-name="b.002" horiz-adv-x="620" 
d="M40 700h240v-230c41 24 76 40 132 40c124 0 188 -70 188 -260c0 -226 -82 -250 -320 -250h-240v700zM296 149c42 0 64 35 64 101c0 61 -21 91 -63 91h-17v-192h16z" />
    <glyph glyph-name="afii10030.001" horiz-adv-x="1003" 
d="M300 390l-20 -390h-250l56 700h301l115 -410l114 410h301l56 -700h-250l-19 390l-102 -390h-200z" />
    <glyph glyph-name="afii10032.001" 
d="M30 267v156c0 225 150 287 350 287s350 -62 350 -287v-156c0 -225 -150 -277 -350 -277s-350 52 -350 277zM300 400v-100c0 -64 4 -110 80 -110s80 46 80 110v100c0 64 -4 110 -80 110c-77 0 -80 -47 -80 -110z" />
    <glyph glyph-name="afii10082.001" horiz-adv-x="630" 
d="M280 -200h-240v700h240v-30c5 3 23 13 49 22s58 18 94 18c108 0 177 -36 177 -260c0 -190 -64 -260 -205 -260c-31 0 -53 2 -71 6s-31 9 -44 14v-210zM290 341h-10v-182h23c41 0 57 28 57 91c0 66 -22 91 -70 91z" />
    <glyph glyph-name="afii10017.001" 
d="M478 0c-6 33 -12 67 -19 100h-156c-7 -33 -14 -67 -20 -100h-273c71 233 141 467 210 700h329c67 -233 133 -467 201 -700h-272zM387 457c-17 -62 -34 -125 -50 -187h89c-12 62 -26 125 -39 187z" />
    <glyph glyph-name="afii10083.001" horiz-adv-x="485" 
d="M445 163l30 -150c-54 -20 -145 -22 -168 -22c-147 0 -277 60 -277 222v72c0 139 130 226 277 226c26 0 114 -7 168 -26l-30 -150c0 2 -64 16 -85 16c-50 0 -80 -16 -80 -86v-32c0 -70 28 -85 80 -85c35 0 43 4 85 15z" />
    <glyph glyph-name="afii10065.001" horiz-adv-x="600" 
d="M72 346l-25 132c43 11 122 32 222 32c163 0 291 -40 291 -196v-314h-240v30c-34 -24 -87 -40 -145 -40c-89 0 -145 41 -145 158c0 109 58 145 190 145h102v11c0 30 -8 61 -66 61c-44 0 -140 -11 -184 -19zM304 113h16v81l-28 -2c-15 -5 -22 -20 -22 -40
c0 -21 11 -39 34 -39z" />
    <glyph glyph-name="CR" horiz-adv-x="500" 
 />
    <glyph glyph-name="two.001" horiz-adv-x="833" 
 />
    <glyph glyph-name="three.001" horiz-adv-x="670" 
d="M91 -40l-21 193c50 8 287 13 287 98c0 20 -32 31 -75 31c-8 0 -16 0 -84 -6l-20 167l77 9c33 4 85 15 85 39c0 26 -59 26 -99 26c-51 0 -123 -12 -172 -21l-27 186c32 10 132 28 254 28c173 0 294 -35 294 -175c0 -81 -44 -110 -92 -128c77 -5 129 -51 129 -157
c0 -243 -315 -272 -536 -290z" />
    <glyph glyph-name="trademark.001" horiz-adv-x="1603" 
d="M10 470v230h580v-230h-160v-470h-260v470h-160zM900 390l-20 -390h-250l56 700h301l115 -410l114 410h301l56 -700h-250l-19 390l-102 -390h-200z" />
    <glyph glyph-name="three.002" horiz-adv-x="670" 
d="M91 -40l-21 193c50 8 287 13 287 98c0 21 -30 31 -71 31c-9 0 -18 0 -88 -6l-20 167l77 9c33 4 85 15 85 39c0 26 -59 26 -99 26c-58 0 -123 -12 -172 -21l-27 186c32 10 132 28 254 28c173 0 294 -35 294 -175c0 -81 -44 -110 -92 -128c77 -5 129 -51 129 -157
c0 -250 -319 -271 -536 -290z" />
    </font>
</defs>
</svg>
