<?xml version="1.0" standalone="no"?>
<!DOCTYPE svg PUBLIC "-//W3C//DTD SVG 1.1//EN" "http://www.w3.org/Graphics/SVG/1.1/DTD/svg11.dtd" >
<svg xmlns="http://www.w3.org/2000/svg" xmlns:xlink="http://www.w3.org/1999/xlink" version="1.1">
<metadata>
Created by FontForge 20141024 at Thu Oct 30 17:07:26 2014
 By World Wide Web Server
Copyright (c) 2006 by Zakhar Yashchin. All rights reserved.
</metadata>
<defs>
<font id="ALSEkibastuz-Bold" horiz-adv-x="529" >
  <font-face 
    font-family="ALS Ekibastuz "
    font-weight="700"
    font-stretch="normal"
    units-per-em="1000"
    panose-1="2 0 8 3 5 0 0 2 0 4"
    ascent="800"
    descent="-200"
    x-height="500"
    cap-height="700"
    bbox="-112 -281 1201 950"
    underline-thickness="50"
    underline-position="-50"
    stemh="81"
    stemv="106"
    unicode-range="U+0020-221E"
  />
<missing-glyph horiz-adv-x="360" 
 />
    <glyph glyph-name=".notdef" horiz-adv-x="360" 
 />
    <glyph glyph-name="space" unicode=" " horiz-adv-x="260" 
 />
    <glyph glyph-name="exclam" unicode="!" horiz-adv-x="256" 
d="M68 700h120l-16 -503h-88zM67 134h121v-134h-121v134z" />
    <glyph glyph-name="quotedbl" unicode="&#x22;" horiz-adv-x="413" 
d="M75 700h105l-10 -230h-85zM233 700h105l-10 -230h-85z" />
    <glyph glyph-name="numbersign" unicode="#" horiz-adv-x="673" 
d="M78 463v84h126l30 153h98l-30 -153h147l30 153h98l-30 -153h47v-84h-64l-44 -226h108v-84h-124l-30 -153h-97l29 153h-147l-30 -153h-97l29 153h-49v84h66l44 226h-110zM285 463l-44 -226h148l44 226h-148z" />
    <glyph glyph-name="dollar" unicode="$" horiz-adv-x="610" 
d="M272 730h70v-60c77 -2 141 -17 206 -37l-16 -80c-55 19 -115 35 -190 37v-211c124 -25 223 -68 223 -214c0 -115 -105 -170 -223 -174v-71h-70v70c-72 1 -166 12 -226 40l15 83c55 -24 138 -36 211 -38v217c-114 22 -225 68 -225 196c0 125 103 178 225 182v60zM473 173
c0 84 -64 89 -131 108v-206c127 5 131 76 131 98zM141 489c0 -66 71 -83 131 -99v199c-99 -4 -131 -54 -131 -100z" />
    <glyph glyph-name="ampersand" unicode="&#x26;" horiz-adv-x="782" 
d="M559 665l-21 -82c-35 17 -91 43 -143 43c-62 0 -138 -5 -138 -82c0 -44 33 -92 51 -114l217 -263c28 38 45 91 53 132l93 -12c-8 -72 -53 -146 -92 -181l90 -106h-116l-45 53c-38 -34 -90 -63 -188 -63c-123 0 -245 53 -245 196c0 127 66 180 141 215
c-29 37 -64 85 -64 143c0 112 94 166 220 166c76 0 148 -26 187 -45zM325 55c46 0 104 19 138 51l-197 237c-22 -12 -85 -60 -85 -157c0 -83 65 -131 144 -131z" />
    <glyph glyph-name="quotesingle" unicode="'" horiz-adv-x="261" 
d="M78 700h105l-10 -230h-85z" />
    <glyph glyph-name="parenleft" unicode="(" horiz-adv-x="421" 
d="M81 325c0 198 86 359 152 471l96 -12c-46 -73 -142 -242 -142 -459c0 -237 119 -411 147 -457l-99 -12c-68 110 -154 267 -154 469z" />
    <glyph glyph-name="parenright" unicode=")" horiz-adv-x="421" 
d="M334 325c0 -202 -87 -359 -155 -469l-98 12c30 46 147 220 147 457c0 217 -97 386 -143 459l97 12c66 -112 152 -273 152 -471z" />
    <glyph glyph-name="asterisk" unicode="*" horiz-adv-x="694" 
d="M78 566l40 78l193 -117l-8 213h88l-7 -213l192 117l40 -78l-190 -96l190 -96l-40 -78l-192 117l7 -213h-88l8 212l-193 -116l-40 78l190 96z" />
    <glyph glyph-name="plus" unicode="+" horiz-adv-x="656" 
d="M281 595h94v-203h203v-85h-203v-203h-94v203h-203v85h203v203z" />
    <glyph glyph-name="comma" unicode="," horiz-adv-x="271" 
d="M75 134h121v-82c0 -87 -42 -161 -78 -206l-39 18c22 37 40 88 40 136h-44v134z" />
    <glyph glyph-name="hyphen" unicode="-" horiz-adv-x="456" 
d="M78 283v85h300v-85h-300z" />
    <glyph glyph-name="period" unicode="." horiz-adv-x="271" 
d="M75 134h121v-134h-121v134z" />
    <glyph glyph-name="slash" unicode="/" horiz-adv-x="581" 
d="M518 715l-349 -793h-106l348 793h107z" />
    <glyph glyph-name="zero" unicode="0" horiz-adv-x="658" 
d="M41 282v133c0 180 107 295 288 295s288 -114 288 -294v-134c0 -179 -106 -292 -288 -292s-288 111 -288 292zM329 619c-118 0 -179 -82 -179 -198v-142c0 -123 61 -198 179 -198s179 75 179 198v141c0 117 -61 199 -179 199z" />
    <glyph glyph-name="one" unicode="1" horiz-adv-x="658" 
d="M153 447l258 253h94v-700h-106v572l-213 -213z" />
    <glyph glyph-name="two" unicode="2" horiz-adv-x="658" 
d="M322 710c151 0 260 -48 260 -178c0 -134 -143 -195 -234 -245c-87 -48 -172 -80 -172 -200h411v-87h-517v36c0 203 86 251 215 322c67 37 192 86 192 164c0 61 -58 102 -160 102c-54 0 -162 -24 -218 -46l-16 84c44 17 147 48 239 48z" />
    <glyph glyph-name="three" unicode="3" horiz-adv-x="658" 
d="M63 21l25 85c32 -9 117 -31 201 -31c107 0 199 25 199 122c0 131 -140 131 -205 131h-83l-13 79h108c76 0 153 40 153 117c0 72 -61 101 -153 101c-50 0 -157 -9 -199 -26l-20 82c39 13 124 29 217 29c131 0 260 -31 260 -166c0 -80 -60 -138 -135 -158
c95 -27 176 -70 176 -198c0 -160 -141 -198 -311 -198c-85 0 -202 24 -220 31z" />
    <glyph glyph-name="four" unicode="4" horiz-adv-x="658" 
d="M406 700h117v-425h76l-14 -83h-62v-192h-106v192h-358v79zM416 592l-254 -317h254v317z" />
    <glyph glyph-name="five" unicode="5" horiz-adv-x="658" 
d="M63 28l14 89c32 -9 155 -38 244 -38c101 0 165 27 165 146c0 110 -82 127 -146 127c-75 0 -182 -17 -235 -28l34 376h433l-7 -83h-337l-22 -200c49 15 113 24 180 24c110 0 209 -50 209 -215c0 -185 -118 -236 -268 -236c-110 0 -243 30 -264 38z" />
    <glyph glyph-name="six" unicode="6" horiz-adv-x="658" 
d="M51 274v144c0 213 147 292 289 292c108 0 196 -21 237 -34l-20 -78c-42 16 -136 30 -207 30c-109 0 -191 -70 -191 -185v-53c32 21 94 57 199 57c138 0 249 -57 249 -228c0 -137 -103 -229 -273 -229c-155 0 -283 63 -283 284zM159 311v-49c0 -134 66 -196 170 -196
c95 0 169 53 169 153c0 103 -69 143 -159 143c-68 0 -140 -29 -180 -51z" />
    <glyph glyph-name="seven" unicode="7" horiz-adv-x="658" 
d="M315 0h-110c0 313 154 523 258 609h-404v91h539v-64c-122 -93 -283 -305 -283 -636z" />
    <glyph glyph-name="eight" unicode="8" horiz-adv-x="658" 
d="M231 375c-60 19 -160 63 -160 164c0 106 96 171 258 171s258 -65 258 -171c0 -98 -91 -142 -175 -164c102 -26 205 -74 205 -184c0 -148 -113 -201 -288 -201s-288 53 -288 201c0 119 101 159 190 184zM310 329c-85 -22 -158 -54 -158 -131c0 -95 66 -127 177 -127
c110 0 177 32 177 127c0 84 -108 104 -196 131zM329 634c-103 0 -156 -44 -156 -101c0 -72 108 -107 163 -125c49 17 149 56 149 125c0 57 -53 101 -156 101z" />
    <glyph glyph-name="nine" unicode="9" horiz-adv-x="658" 
d="M607 426v-144c0 -213 -148 -292 -290 -292c-96 0 -196 23 -237 34l20 79c42 -16 137 -31 208 -31c107 0 190 69 190 186v42c-34 -21 -130 -49 -206 -49c-140 0 -241 68 -241 230c0 137 102 229 273 229c154 0 283 -63 283 -284zM498 379v72c-8 130 -71 184 -170 184
c-95 0 -169 -54 -169 -154c0 -103 73 -143 159 -143c52 0 140 19 180 41z" />
    <glyph glyph-name="colon" unicode=":" horiz-adv-x="271" 
d="M75 502h121v-134h-121v134zM75 134h121v-134h-121v134z" />
    <glyph glyph-name="semicolon" unicode=";" horiz-adv-x="271" 
d="M75 502h121v-134h-121v134zM75 134h121v-82c0 -87 -42 -161 -78 -206l-39 18c22 37 40 88 40 136h-44v134z" />
    <glyph glyph-name="less" unicode="&#x3c;" horiz-adv-x="629" 
d="M78 220v62l456 217v-88l-341 -159l341 -161v-87z" />
    <glyph glyph-name="equal" unicode="=" horiz-adv-x="656" 
d="M78 228v79h500v-79h-500zM78 392v79h500v-79h-500z" />
    <glyph glyph-name="greater" unicode="&#x3e;" horiz-adv-x="629" 
d="M78 499l456 -217v-62l-456 -216v87l341 161l-341 159v88z" />
    <glyph glyph-name="question" unicode="?" horiz-adv-x="547" 
d="M62 599l-11 91c17 5 107 20 165 20c125 0 253 -42 253 -181c0 -140 -82 -163 -143 -195c-30 -16 -63 -35 -63 -77v-70h-94v76c0 67 44 98 98 125c51 25 96 52 96 119c0 104 -54 111 -147 111c-43 0 -131 -12 -154 -19zM155 134h121v-134h-121v134z" />
    <glyph glyph-name="at" unicode="@" horiz-adv-x="1115" 
d="M558 710c319 0 482 -116 482 -406c0 -195 -101 -304 -290 -304h-81v47c-34 -23 -94 -57 -149 -57c-128 0 -195 83 -195 248c0 181 81 272 233 272c84 0 162 -19 204 -27v-421c88 3 169 42 169 242c0 247 -98 328 -373 328c-248 0 -374 -111 -374 -383
c0 -286 122 -381 374 -381c174 0 336 53 418 86l21 -72c-89 -40 -255 -95 -439 -95c-304 0 -483 122 -483 462c0 326 179 461 483 461zM550 57c45 0 91 28 112 41v334c-24 6 -49 14 -99 14c-67 0 -137 -30 -138 -205c0 -155 61 -184 125 -184z" />
    <glyph glyph-name="A" unicode="A" horiz-adv-x="652" 
d="M515 0l-60 190h-258l-60 -190h-112l236 700h132l234 -700h-112zM328 604l-110 -331h216z" />
    <glyph glyph-name="B" unicode="B" horiz-adv-x="592" 
d="M78 0v700h261c103 0 175 -47 175 -167c0 -79 -31 -129 -83 -148c69 -25 117 -78 117 -182c0 -121 -46 -203 -216 -203h-254zM184 329v-252h124c84 0 135 30 135 129c0 98 -72 123 -135 123h-124zM315 623h-131v-217h131c42 0 94 25 94 118c0 62 -32 99 -94 99z" />
    <glyph glyph-name="C" unicode="C" horiz-adv-x="559" 
d="M497 103l18 -75c-50 -17 -120 -38 -186 -38c-187 0 -285 97 -285 282v156c0 184 98 282 285 282c66 0 136 -18 186 -38l-21 -75c-50 19 -113 35 -165 35c-125 0 -177 -80 -177 -205v-155c0 -114 48 -204 177 -204c52 0 118 19 168 35z" />
    <glyph glyph-name="D" unicode="D" horiz-adv-x="683" 
d="M78 0v700h238c205 0 323 -66 323 -350s-119 -350 -323 -350h-238zM316 624h-132v-548h132c115 0 215 37 215 274c0 240 -100 274 -215 274z" />
    <glyph glyph-name="E" unicode="E" horiz-adv-x="555" 
d="M184 333v-252h327v-81h-433v700h433v-81h-327v-207h281v-79h-281z" />
    <glyph glyph-name="F" unicode="F" horiz-adv-x="552" 
d="M184 308v-308h-106v700h433v-81h-327v-230h281v-81h-281z" />
    <glyph glyph-name="G" unicode="G" horiz-adv-x="612" 
d="M568 30c-73 -27 -154 -40 -232 -40c-194 0 -292 94 -292 278v162c0 184 98 280 292 280c73 0 147 -9 217 -31l-21 -79c-63 21 -128 27 -186 27c-140 0 -194 -73 -194 -205v-159c0 -123 54 -199 184 -199c42 0 75 4 126 18v209l-135 6v79h241v-346z" />
    <glyph glyph-name="H" unicode="H" horiz-adv-x="713" 
d="M529 700h106v-700h-106v337h-345v-337h-106v700h106v-282h345v282z" />
    <glyph glyph-name="I" unicode="I" horiz-adv-x="388" 
d="M30 629v71h325v-71h-110v-558h113v-71h-325v71h106v558h-109z" />
    <glyph glyph-name="J" unicode="J" horiz-adv-x="486" 
d="M163 -10c-65 0 -114 12 -150 28l17 81c27 -14 78 -34 115 -34c135 0 157 81 157 163v472h106v-471c0 -135 -48 -239 -245 -239z" />
    <glyph glyph-name="K" unicode="K" horiz-adv-x="631" 
d="M184 700v-307h13l291 307h129l-317 -321l320 -379h-124l-298 354h-14v-354h-106v700h106z" />
    <glyph glyph-name="L" unicode="L" horiz-adv-x="572" 
d="M78 0v700h106v-619h347v-81h-453z" />
    <glyph glyph-name="M" unicode="M" horiz-adv-x="917" 
d="M199 563l-38 -563h-103l59 700h124l218 -604l216 604h125l59 -700h-103l-38 563l-205 -563h-110z" />
    <glyph glyph-name="N" unicode="N" horiz-adv-x="760" 
d="M581 700h101v-700h-110l-394 553v-553h-100v700h112l391 -550v550z" />
    <glyph glyph-name="O" unicode="O" horiz-adv-x="708" 
d="M44 266v165c0 162 111 279 310 279s310 -117 310 -279v-165c0 -162 -110 -276 -310 -276s-310 114 -310 276zM153 440v-181c0 -122 75 -189 201 -189c133 0 201 67 201 189v181c0 113 -68 190 -201 190c-121 0 -201 -70 -201 -190z" />
    <glyph glyph-name="P" unicode="P" horiz-adv-x="604" 
d="M78 700h227c175 0 255 -50 255 -223s-80 -236 -255 -236h-121v-241h-106v700zM184 624v-307h121c77 0 147 26 147 160c0 112 -55 147 -147 147h-121z" />
    <glyph glyph-name="Q" unicode="Q" horiz-adv-x="708" 
d="M44 266v165c0 162 111 279 310 279s310 -117 310 -279v-165c0 -111 -51 -198 -147 -243l88 -195h-102l-75 168c-23 -4 -48 -6 -74 -6c-200 0 -310 114 -310 276zM153 445v-181c0 -122 75 -199 201 -199c13 0 28 1 40 2l-99 225h102l83 -192c49 34 75 90 75 165v180
c0 113 -68 190 -201 190c-121 0 -201 -70 -201 -190z" />
    <glyph glyph-name="R" unicode="R" horiz-adv-x="637" 
d="M506 0l-186 280h-136v-280h-106v700h244c179 0 255 -61 255 -215c0 -126 -65 -200 -149 -203l198 -282h-120zM184 624v-268h141c91 0 144 24 144 129c0 104 -52 139 -144 139h-141z" />
    <glyph glyph-name="S" unicode="S" horiz-adv-x="610" 
d="M309 710c93 0 165 -16 239 -40l-16 -82c-68 24 -146 43 -223 43c-117 0 -153 -50 -153 -100c0 -49 35 -80 87 -101c169 -69 323 -59 323 -246c0 -136 -117 -194 -261 -194c-75 0 -190 12 -259 45l15 80c68 -28 169 -46 244 -46c146 0 153 86 153 109c0 62 -24 84 -97 108
c-146 48 -314 63 -314 238c0 131 118 186 262 186z" />
    <glyph glyph-name="T" unicode="T" horiz-adv-x="558" 
d="M24 616v84h510v-84h-202v-616h-106v616h-202z" />
    <glyph glyph-name="U" unicode="U" horiz-adv-x="653" 
d="M491 700h98v-450c0 -167 -78 -260 -253 -260c-185 0 -272 93 -272 260v450h106v-462c0 -118 63 -169 169 -169s152 52 152 169v462z" />
    <glyph glyph-name="V" unicode="V" horiz-adv-x="619" 
d="M234 0l-224 700h113l183 -619h11l180 619h112l-226 -700h-149z" />
    <glyph glyph-name="W" unicode="W" horiz-adv-x="986" 
d="M197 0l-187 700h112l143 -606l172 606h104l174 -605l142 605h119l-197 -700h-120l-173 579l-169 -579h-120z" />
    <glyph glyph-name="X" unicode="X" horiz-adv-x="632" 
d="M141 700l188 -286l166 286h127l-243 -350l243 -350h-131l-187 284l-167 -284h-127l242 350l-242 350h131z" />
    <glyph glyph-name="Y" unicode="Y" horiz-adv-x="613" 
d="M254 261l-244 439h120l182 -368l174 368h117l-243 -439v-261h-106v261z" />
    <glyph glyph-name="Z" unicode="Z" horiz-adv-x="606" 
d="M48 615v85h511v-75l-390 -540h396v-85h-524v75l393 540h-386z" />
    <glyph glyph-name="bracketleft" unicode="[" horiz-adv-x="398" 
d="M320 800v-86h-136v-768h136v-86h-242v940h242z" />
    <glyph glyph-name="backslash" unicode="\" horiz-adv-x="581" 
d="M526 -111h-106l-354 833h107z" />
    <glyph glyph-name="bracketright" unicode="]" horiz-adv-x="398" 
d="M214 714h-136v86h242v-940h-242v86h136v768z" />
    <glyph glyph-name="asciicircum" unicode="^" horiz-adv-x="691" 
d="M302 701h86l225 -416h-102l-164 317l-168 -317h-101z" />
    <glyph glyph-name="underscore" unicode="_" horiz-adv-x="500" 
d="M0 -123v88h500v-88h-500z" />
    <glyph glyph-name="grave" unicode="`" horiz-adv-x="277" 
d="M175 749l27 -187l-70 -12l-64 199h107z" />
    <glyph glyph-name="a" unicode="a" 
d="M82 414l-13 65c32 11 108 31 199 31c160 0 200 -69 200 -181v-329h-100v37c-28 -20 -85 -48 -156 -48c-118 0 -172 52 -172 153c0 96 74 138 186 138h142v65c0 68 -30 98 -104 98c-65 0 -142 -16 -182 -29zM251 58c38 0 91 23 117 35v123h-120c-74 0 -105 -38 -105 -73
c0 -60 32 -85 108 -85z" />
    <glyph glyph-name="b" unicode="b" horiz-adv-x="563" 
d="M61 700h100v-237c29 18 84 46 152 46c152 0 212 -95 212 -259c0 -175 -60 -257 -212 -257c-69 0 -121 27 -152 44v-37h-100v700zM278 59c71 0 145 35 145 191c0 155 -74 188 -145 188c-51 0 -92 -21 -117 -35v-309c25 -16 64 -35 117 -35z" />
    <glyph glyph-name="c" unicode="c" horiz-adv-x="463" 
d="M431 98l15 -72c-37 -19 -93 -36 -166 -36c-144 0 -240 74 -240 221v77c0 139 95 222 240 222c49 0 117 -14 166 -36l-16 -73c-33 14 -90 35 -134 35c-101 0 -150 -51 -150 -154v-65c0 -104 50 -154 150 -154c48 0 87 16 135 35z" />
    <glyph glyph-name="d" unicode="d" horiz-adv-x="580" 
d="M419 700h100v-700h-100v37c-24 -15 -74 -47 -148 -47c-132 0 -216 83 -216 260c0 171 63 260 218 260c73 0 119 -28 146 -47v237zM301 62c53 0 91 19 118 35v306c-26 14 -68 35 -118 35c-73 0 -144 -29 -144 -188c0 -156 71 -188 144 -188z" />
    <glyph glyph-name="e" unicode="e" 
d="M469 98l11 -74c-64 -20 -128 -34 -199 -34c-135 0 -241 44 -241 196v96c0 143 68 228 227 228c132 0 224 -58 224 -200v-86h-348v-43c0 -97 56 -117 147 -117c50 0 122 16 179 34zM143 306v-23h253v37c0 87 -45 121 -129 121c-86 0 -124 -39 -124 -135z" />
    <glyph glyph-name="f" unicode="f" horiz-adv-x="404" 
d="M442 730l-14 -68c-29 7 -81 16 -117 16c-88 0 -100 -52 -100 -178h173v-72h-173v-428h-100v428h-91v72h91v40c0 144 61 210 175 210c70 0 132 -13 156 -20z" />
    <glyph glyph-name="g" unicode="g" horiz-adv-x="564" 
d="M294 510c74 0 118 -17 142 -32c5 23 5 38 5 72h101c-1 -47 -13 -87 -58 -104c22 -21 36 -50 36 -95c0 -125 -103 -151 -226 -151c-24 0 -67 2 -86 6c-5 -8 -12 -30 -12 -47c0 -12 7 -34 15 -45c19 4 61 5 83 5c142 0 250 -30 250 -159c0 -130 -107 -160 -250 -160
c-142 0 -249 30 -249 160c0 71 38 112 91 136c-14 13 -29 36 -29 62c0 32 13 52 30 67c-36 21 -68 60 -68 126c0 125 105 159 225 159zM445 -40c0 64 -27 95 -151 95c-101 0 -150 -29 -150 -95c0 -54 27 -97 150 -97c124 0 151 42 151 97zM420 351c0 61 -37 97 -126 97
c-101 0 -126 -41 -126 -97c0 -64 25 -90 126 -90c95 0 126 25 126 90z" />
    <glyph glyph-name="h" unicode="h" horiz-adv-x="576" 
d="M515 0h-100v328c0 76 -27 110 -112 110c-53 0 -113 -31 -142 -56v-382h-100v700h100v-252c26 21 88 62 176 62c107 0 178 -23 178 -168v-342z" />
    <glyph glyph-name="i" unicode="i" horiz-adv-x="222" 
d="M61 500h100v-500h-100v500zM61 700h100v-117h-100v117z" />
    <glyph glyph-name="j" unicode="j" horiz-adv-x="222" 
d="M-112 -190l16 72c13 -4 53 -16 75 -16c43 0 82 22 82 100v534h100v-544c0 -111 -52 -166 -161 -166c-44 0 -99 12 -112 20zM61 700h100v-117h-100v117z" />
    <glyph glyph-name="k" unicode="k" horiz-adv-x="514" 
d="M161 700v-414h14l207 214h124l-245 -239l245 -261h-118l-213 238h-14v-238h-100v700h100z" />
    <glyph glyph-name="l" unicode="l" horiz-adv-x="222" 
d="M161 0h-100v750h100v-750z" />
    <glyph glyph-name="m" unicode="m" horiz-adv-x="800" 
d="M450 0h-97v346c0 56 -20 86 -74 86c-34 0 -92 -26 -121 -54v-378h-97v500h97v-69c33 27 112 79 162 79c79 0 105 -41 120 -83c44 40 125 83 174 83c102 0 125 -53 125 -151v-359h-97v346c0 57 -13 86 -67 86c-32 0 -93 -25 -125 -51v-381z" />
    <glyph glyph-name="n" unicode="n" horiz-adv-x="576" 
d="M515 0h-100v324c0 83 -27 114 -112 114c-55 0 -114 -31 -142 -56v-382h-100v500h100v-52c39 24 114 62 191 62c122 0 163 -60 163 -179v-331z" />
    <glyph glyph-name="o" unicode="o" horiz-adv-x="558" 
d="M37 197v105c0 129 87 208 241 208c153 0 243 -79 243 -208v-105c0 -129 -90 -207 -243 -207c-154 0 -241 78 -241 207zM137 318v-129c0 -85 48 -132 141 -132s141 48 141 132v129c0 83 -48 124 -141 124c-89 0 -141 -43 -141 -124z" />
    <glyph glyph-name="p" unicode="p" horiz-adv-x="566" 
d="M161 -200h-100v700h100v-37c27 17 81 49 155 49c138 0 209 -85 209 -262c0 -171 -63 -257 -209 -257c-74 0 -123 27 -155 44v-237zM276 438c-51 0 -90 -19 -115 -35v-306c27 -14 68 -35 121 -35c69 1 141 33 141 188c0 156 -74 188 -147 188z" />
    <glyph glyph-name="q" unicode="q" horiz-adv-x="566" 
d="M505 479v-679h-100v237c-31 -18 -83 -48 -150 -48c-155 0 -215 96 -215 261s61 260 229 260c102 0 172 -15 236 -31zM290 438c-74 0 -147 -32 -147 -188c0 -159 74 -188 147 -188c51 0 89 21 115 35v320c-28 12 -64 21 -115 21z" />
    <glyph glyph-name="r" unicode="r" horiz-adv-x="380" 
d="M351 510l12 -85h-50c-82 0 -152 -81 -152 -130v-295h-100v500h100v-90c27 51 85 100 149 100h41z" />
    <glyph glyph-name="s" unicode="s" horiz-adv-x="504" 
d="M259 510c81 0 142 -17 189 -31l-14 -69c-52 16 -105 31 -176 31c-92 0 -117 -40 -117 -73c0 -30 19 -52 48 -61c113 -36 277 -30 277 -180c0 -116 -88 -137 -208 -137c-80 0 -155 14 -219 32l9 70c60 -15 134 -33 202 -33c101 0 116 36 116 60c0 30 -16 53 -53 67
c-108 41 -272 29 -272 182c0 104 93 142 218 142z" />
    <glyph glyph-name="t" unicode="t" horiz-adv-x="392" 
d="M17 431v69h85v127l100 13v-140h170v-69h-170v-270c0 -79 34 -102 78 -102c46 0 65 8 89 15l15 -63c-18 -7 -60 -21 -123 -21c-109 0 -159 46 -159 156v285h-85z" />
    <glyph glyph-name="u" unicode="u" horiz-adv-x="576" 
d="M61 500h100v-324c0 -83 38 -114 99 -114c65 0 127 31 155 55v383h100v-500h-100v52c-42 -27 -125 -62 -205 -62c-103 0 -149 65 -149 160v350z" />
    <glyph glyph-name="v" unicode="v" horiz-adv-x="506" 
d="M189 0l-179 500h111l137 -428h6l134 428h98l-178 -500h-129z" />
    <glyph glyph-name="w" unicode="w" horiz-adv-x="806" 
d="M149 0l-136 500h109l91 -412h4l132 412h110l133 -413h4l92 413h104l-136 -500h-123l-130 418l-131 -418h-123z" />
    <glyph glyph-name="x" unicode="x" horiz-adv-x="516" 
d="M125 500l149 -202l121 202h111l-187 -258l187 -242h-115l-147 202l-122 -202h-112l186 262l-186 238h115z" />
    <glyph glyph-name="y" unicode="y" horiz-adv-x="541" 
d="M9 500h111l175 -439l128 439h108l-169 -495c-23 -67 -46 -112 -68 -150c-27 -47 -67 -85 -142 -85c-45 0 -96 13 -129 27l19 69c24 -9 68 -22 98 -22c40 0 71 14 91 62l39 94c-26 2 -62 24 -74 60z" />
    <glyph glyph-name="z" unicode="z" horiz-adv-x="499" 
d="M53 426v74h402v-52l-287 -374h290v-74h-421v52l290 374h-274z" />
    <glyph glyph-name="braceleft" unicode="{" horiz-adv-x="431" 
d="M353 708h-56c-27 0 -45 -15 -45 -44v-247c0 -41 -20 -55 -42 -68c29 -21 42 -45 42 -112v-241c0 -28 18 -44 45 -44h56v-92h-62c-97 0 -145 46 -145 136v260c0 32 -21 44 -34 44h-34v92h34c12 0 34 12 34 44v233c0 90 51 131 145 131h62v-92z" />
    <glyph glyph-name="bar" unicode="|" horiz-adv-x="262" 
d="M78 750h106v-1000h-106v1000z" />
    <glyph glyph-name="braceright" unicode="}" horiz-adv-x="431" 
d="M134 708h-56v92h62c94 0 145 -41 145 -131v-233c0 -32 22 -44 34 -44h34v-92h-34c-13 0 -34 -12 -34 -44v-260c0 -90 -49 -136 -145 -136h-62v92h56c27 0 45 16 45 44v241c0 67 13 91 42 112c-22 13 -42 27 -42 68v247c0 29 -18 44 -45 44z" />
    <glyph glyph-name="asciitilde" unicode="~" horiz-adv-x="693" 
d="M121 349l-37 80c13 15 73 84 147 84c87 0 130 -63 222 -63c58 0 112 59 122 70l46 -77c-10 -14 -69 -97 -152 -97c-99 0 -140 63 -222 63c-48 0 -108 -43 -126 -60z" />
    <glyph glyph-name="sterling" unicode="&#xa3;" horiz-adv-x="807" 
d="M644 669l-23 -72c-1 1 -110 34 -198 34c-72 0 -147 -43 -147 -152v-68h287v-67h-287v-222c14 2 30 4 45 4c80 0 130 -50 204 -50c72 0 146 64 153 68l39 -65c-13 -12 -95 -89 -188 -89c-89 0 -140 55 -237 55c-61 0 -132 -22 -181 -52l-27 68c23 15 52 32 86 45v238h-59
v67h59v75c0 144 108 224 253 224c109 0 213 -39 221 -41z" />
    <glyph glyph-name="section" unicode="&#xa7;" horiz-adv-x="708" 
d="M354 707c102 0 193 -18 267 -37l-18 -79c-69 18 -148 38 -249 38c-127 0 -167 -44 -167 -83c0 -62 88 -85 184 -105c106 -22 256 -50 256 -191c0 -72 -70 -120 -133 -146c77 -25 133 -69 133 -142c0 -116 -139 -162 -273 -162c-98 0 -209 22 -268 36l19 79
c79 -19 175 -37 249 -37c127 0 167 43 167 84c0 64 -92 87 -190 105c-100 18 -250 52 -250 190c0 75 78 117 134 145c-72 19 -134 72 -134 143c0 110 128 162 273 162zM187 257c0 -89 112 -103 194 -122c72 30 140 61 140 115c0 78 -90 102 -194 122
c-67 -25 -140 -65 -140 -115z" />
    <glyph glyph-name="dieresis" unicode="&#xa8;" horiz-adv-x="413" 
d="M68 709h103v-132h-103v132zM242 709h103v-132h-103v132z" />
    <glyph glyph-name="copyright" unicode="&#xa9;" horiz-adv-x="1066" 
d="M533 710c312 0 455 -174 455 -455s-143 -455 -455 -455s-455 174 -455 455s143 455 455 455zM901 255c0 255 -115 386 -368 386c-245 0 -368 -131 -368 -386c0 -263 131 -385 368 -385c249 0 368 122 368 385zM687 86l14 -64c-44 -15 -92 -26 -146 -26
c-156 0 -225 65 -225 218v76c0 152 69 224 225 224c54 0 102 -10 146 -25l-16 -65c-44 15 -86 24 -130 24c-109 0 -145 -48 -145 -159v-74c0 -101 34 -153 145 -153c44 0 88 9 132 24z" />
    <glyph glyph-name="guillemotleft" unicode="&#xab;" horiz-adv-x="555" 
d="M78 254l146 215h90l-135 -214l134 -203h-93zM247 254l146 215h90l-135 -214l134 -203h-93z" />
    <glyph glyph-name="registered" unicode="&#xae;" horiz-adv-x="649" 
d="M311 710c154 0 235 -78 235 -233s-81 -233 -235 -233c-153 0 -235 78 -235 233s82 233 235 233zM489 477c0 128 -54 189 -178 189c-119 0 -177 -61 -177 -189c0 -132 62 -189 177 -189c121 0 178 57 178 189zM366 347l-71 102h-21v-102h-49v263h88c64 0 96 -23 96 -82
c0 -55 -29 -78 -62 -79l78 -102h-59zM274 569v-84h40c30 0 45 12 45 43s-15 41 -45 41h-40z" />
    <glyph glyph-name="degree" unicode="&#xb0;" horiz-adv-x="544" 
d="M272 713c107 0 204 -87 204 -194s-97 -194 -204 -194s-204 87 -204 194s97 194 204 194zM385 519c0 62 -51 113 -113 113s-112 -51 -112 -113s50 -112 112 -112s113 50 113 112z" />
    <glyph glyph-name="plusminus" unicode="&#xb1;" horiz-adv-x="656" 
d="M281 630h94v-203h203v-85h-203v-203h-94v203h-203v85h203v203zM78 0v85h500v-85h-500z" />
    <glyph glyph-name="acute" unicode="&#xb4;" horiz-adv-x="277" 
d="M68 560l27 190h107l-70 -200z" />
    <glyph glyph-name="paragraph" unicode="&#xb6;" horiz-adv-x="727" 
d="M668 700l19 -86h-87v-698l-106 -18v716h-117v-747l-106 -16v437h-12c-115 0 -181 78 -181 206s66 206 181 206h409z" />
    <glyph glyph-name="periodcentered" unicode="&#xb7;" horiz-adv-x="279" 
d="M78 250c0 34 16 62 61 62s62 -28 62 -62c0 -33 -17 -61 -62 -61s-61 28 -61 61z" />
    <glyph glyph-name="guillemotright" unicode="&#xbb;" horiz-adv-x="555" 
d="M381 255l-134 214h89l147 -215l-143 -202h-92zM212 255l-134 214h89l147 -215l-143 -202h-92z" />
    <glyph glyph-name="Agrave" unicode="&#xc0;" horiz-adv-x="652" 
d="M515 0l-60 190h-258l-60 -190h-112l236 700h132l234 -700h-112zM328 604l-113 -342h223zM356 949l27 -187l-70 -12l-64 199h107z" />
    <glyph glyph-name="Aacute" unicode="&#xc1;" horiz-adv-x="652" 
d="M515 0l-60 190h-258l-60 -190h-112l236 700h132l234 -700h-112zM328 604l-113 -342h223zM259 760l27 190h107l-70 -200z" />
    <glyph glyph-name="Acircumflex" unicode="&#xc2;" horiz-adv-x="652" 
d="M515 0l-60 190h-258l-60 -190h-112l236 700h132l234 -700h-112zM328 604l-113 -342h223zM278 935h92l91 -152h-86l-50 110l-49 -110h-85z" />
    <glyph glyph-name="Atilde" unicode="&#xc3;" horiz-adv-x="652" 
d="M515 0l-60 190h-258l-60 -190h-112l236 700h132l234 -700h-112zM328 604l-113 -342h223zM177 819l-19 53c22 17 65 47 109 47c56 0 78 -42 124 -42c39 0 64 25 83 39l26 -49c-15 -20 -62 -57 -109 -57c-54 0 -78 41 -124 41c-44 0 -70 -20 -90 -32z" />
    <glyph glyph-name="Adieresis" unicode="&#xc4;" horiz-adv-x="652" 
d="M515 0l-60 190h-258l-60 -190h-112l236 700h132l234 -700h-112zM328 604l-113 -342h223zM187 909h103v-132h-103v132zM361 909h103v-132h-103v132z" />
    <glyph glyph-name="Egrave" unicode="&#xc8;" horiz-adv-x="555" 
d="M184 337v-257h327v-80h-433v700h433v-80h-327v-208h281v-75h-281zM317 949l28 -187l-71 -12l-64 199h107z" />
    <glyph glyph-name="Eacute" unicode="&#xc9;" horiz-adv-x="555" 
d="M184 337v-257h327v-80h-433v700h433v-80h-327v-208h281v-75h-281zM240 760l28 190h107l-70 -200z" />
    <glyph glyph-name="Ecircumflex" unicode="&#xca;" horiz-adv-x="555" 
d="M184 337v-257h327v-80h-433v700h433v-80h-327v-208h281v-75h-281zM230 935h92l90 -152h-86l-49 110l-49 -110h-86z" />
    <glyph glyph-name="Edieresis" unicode="&#xcb;" horiz-adv-x="555" 
d="M184 337v-257h327v-80h-433v700h433v-80h-327v-208h281v-75h-281zM139 909h103v-132h-103v132zM312 909h104v-132h-104v132z" />
    <glyph glyph-name="Igrave" unicode="&#xcc;" horiz-adv-x="368" 
d="M20 619v81h325v-81h-110v-538h113v-81h-325v81h106v538h-109zM224 949l27 -187l-70 -12l-64 199h107z" />
    <glyph glyph-name="Iacute" unicode="&#xcd;" horiz-adv-x="368" 
d="M20 619v81h325v-81h-110v-538h113v-81h-325v81h106v538h-109zM117 760l27 190h107l-70 -200z" />
    <glyph glyph-name="Icircumflex" unicode="&#xce;" horiz-adv-x="368" 
d="M20 619v81h325v-81h-110v-538h113v-81h-325v81h106v538h-109zM136 935h93l90 -152h-86l-49 110l-49 -110h-86z" />
    <glyph glyph-name="Idieresis" unicode="&#xcf;" horiz-adv-x="368" 
d="M20 619v81h325v-81h-110v-538h113v-81h-325v81h106v538h-109zM46 909h103v-132h-103v132zM219 909h104v-132h-104v132z" />
    <glyph glyph-name="Ograve" unicode="&#xd2;" horiz-adv-x="708" 
d="M44 266v165c0 162 111 279 310 279s310 -117 310 -279v-165c0 -162 -110 -276 -310 -276s-310 114 -310 276zM155 424v-149c0 -122 73 -204 199 -204c133 0 199 82 199 204v149c0 113 -66 205 -199 205c-121 0 -199 -85 -199 -205zM394 949l27 -187l-70 -12l-64 199h107z
" />
    <glyph glyph-name="Oacute" unicode="&#xd3;" horiz-adv-x="708" 
d="M44 266v165c0 162 111 279 310 279s310 -117 310 -279v-165c0 -162 -110 -276 -310 -276s-310 114 -310 276zM155 424v-149c0 -122 73 -204 199 -204c133 0 199 82 199 204v149c0 113 -66 205 -199 205c-121 0 -199 -85 -199 -205zM287 760l27 190h107l-70 -200z" />
    <glyph glyph-name="Ocircumflex" unicode="&#xd4;" horiz-adv-x="708" 
d="M44 266v165c0 162 111 279 310 279s310 -117 310 -279v-165c0 -162 -110 -276 -310 -276s-310 114 -310 276zM155 424v-149c0 -122 73 -204 199 -204c133 0 199 82 199 204v149c0 113 -66 205 -199 205c-121 0 -199 -85 -199 -205zM306 935h93l90 -152h-86l-50 110
l-49 -110h-85z" />
    <glyph glyph-name="Otilde" unicode="&#xd5;" horiz-adv-x="708" 
d="M44 266v165c0 162 111 279 310 279s310 -117 310 -279v-165c0 -162 -110 -276 -310 -276s-310 114 -310 276zM155 424v-149c0 -122 73 -204 199 -204c133 0 199 82 199 204v149c0 113 -66 205 -199 205c-121 0 -199 -85 -199 -205zM205 819l-19 53c22 17 62 47 109 47
c56 0 78 -42 124 -42c39 0 64 25 83 39l26 -49c-15 -20 -62 -57 -109 -57c-54 0 -78 41 -124 41c-44 0 -70 -20 -90 -32z" />
    <glyph glyph-name="Odieresis" unicode="&#xd6;" horiz-adv-x="708" 
d="M44 266v165c0 162 111 279 310 279s310 -117 310 -279v-165c0 -162 -110 -276 -310 -276s-310 114 -310 276zM155 424v-149c0 -122 73 -204 199 -204c133 0 199 82 199 204v149c0 113 -66 205 -199 205c-121 0 -199 -85 -199 -205zM215 909h103v-132h-103v132zM389 909
h103v-132h-103v132z" />
    <glyph glyph-name="Ugrave" unicode="&#xd9;" horiz-adv-x="653" 
d="M491 700h98v-450c0 -167 -78 -260 -253 -260c-185 0 -272 93 -272 260v450h109v-460c0 -118 60 -169 166 -169s152 52 152 169v460zM366 949l28 -187l-71 -12l-64 199h107z" />
    <glyph glyph-name="Uacute" unicode="&#xda;" horiz-adv-x="653" 
d="M491 700h98v-450c0 -167 -78 -260 -253 -260c-185 0 -272 93 -272 260v450h109v-460c0 -118 60 -169 166 -169s152 52 152 169v460zM259 760l28 190h107l-70 -200z" />
    <glyph glyph-name="Ucircumflex" unicode="&#xdb;" horiz-adv-x="653" 
d="M491 700h98v-450c0 -167 -78 -260 -253 -260c-185 0 -272 93 -272 260v450h109v-460c0 -118 60 -169 166 -169s152 52 152 169v460zM279 935h92l90 -152h-86l-49 110l-49 -110h-86z" />
    <glyph glyph-name="Udieresis" unicode="&#xdc;" horiz-adv-x="653" 
d="M491 700h98v-450c0 -167 -78 -260 -253 -260c-185 0 -272 93 -272 260v450h109v-460c0 -118 60 -169 166 -169s152 52 152 169v460zM198 909h103v-132h-103v132zM371 909h104v-132h-104v132z" />
    <glyph glyph-name="agrave" unicode="&#xe0;" 
d="M82 416l-13 63c32 8 108 31 199 31c160 0 200 -69 200 -181v-329h-100v37c-28 -20 -85 -48 -156 -48c-118 0 -172 52 -172 153c0 96 74 135 186 135h142v70c0 68 -30 98 -104 98c-65 0 -142 -20 -182 -29zM251 48c38 0 91 23 117 35v143h-121c-74 0 -104 -48 -104 -83
c0 -60 32 -95 108 -95zM304 749l27 -187l-70 -12l-64 199h107z" />
    <glyph glyph-name="aacute" unicode="&#xe1;" 
d="M82 416l-13 63c32 8 108 31 199 31c160 0 200 -69 200 -181v-329h-100v37c-28 -20 -85 -48 -156 -48c-118 0 -172 52 -172 153c0 96 74 135 186 135h142v70c0 68 -30 98 -104 98c-65 0 -142 -20 -182 -29zM251 48c38 0 91 23 117 35v143h-121c-74 0 -104 -48 -104 -83
c0 -60 32 -95 108 -95zM217 560l27 190h107l-70 -200z" />
    <glyph glyph-name="acircumflex" unicode="&#xe2;" 
d="M82 416l-13 63c32 8 108 31 199 31c160 0 200 -69 200 -181v-329h-100v37c-28 -20 -85 -48 -156 -48c-118 0 -172 52 -172 153c0 96 74 135 186 135h142v70c0 68 -30 98 -104 98c-65 0 -142 -20 -182 -29zM251 48c38 0 91 23 117 35v143h-121c-74 0 -104 -48 -104 -83
c0 -60 32 -95 108 -95zM216 735h93l90 -152h-86l-49 110l-49 -110h-86z" />
    <glyph glyph-name="atilde" unicode="&#xe3;" 
d="M82 416l-13 63c32 8 108 31 199 31c160 0 200 -69 200 -181v-329h-100v37c-28 -20 -85 -48 -156 -48c-118 0 -172 52 -172 153c0 96 74 135 186 135h142v70c0 68 -30 98 -104 98c-65 0 -142 -20 -182 -29zM251 48c38 0 91 23 117 35v143h-121c-74 0 -104 -48 -104 -83
c0 -60 32 -95 108 -95zM116 619l-19 53c21 17 58 47 108 47c56 0 78 -42 124 -42c39 0 64 25 84 39l26 -49c-16 -20 -62 -57 -110 -57c-54 0 -78 41 -124 41c-44 0 -69 -20 -89 -32z" />
    <glyph glyph-name="adieresis" unicode="&#xe4;" 
d="M82 416l-13 63c32 8 108 31 199 31c160 0 200 -69 200 -181v-329h-100v37c-28 -20 -85 -48 -156 -48c-118 0 -172 52 -172 153c0 96 74 135 186 135h142v70c0 68 -30 98 -104 98c-65 0 -142 -20 -182 -29zM251 48c38 0 91 23 117 35v143h-121c-74 0 -104 -48 -104 -83
c0 -60 32 -95 108 -95zM125 709h103v-132h-103v132zM299 709h103v-132h-103v132z" />
    <glyph glyph-name="egrave" unicode="&#xe8;" 
d="M469 88l11 -64c-64 -20 -128 -34 -199 -34c-135 0 -241 44 -241 196v96c0 143 68 228 227 228c132 0 224 -58 224 -200v-86h-348v-43c0 -97 56 -127 147 -127c50 0 122 16 179 34zM143 306v-33h253v47c0 87 -45 131 -129 131c-86 0 -124 -49 -124 -145zM304 749l27 -187
l-70 -12l-64 199h107z" />
    <glyph glyph-name="eacute" unicode="&#xe9;" 
d="M469 88l11 -64c-64 -20 -128 -34 -199 -34c-135 0 -241 44 -241 196v96c0 143 68 228 227 228c132 0 224 -58 224 -200v-86h-348v-43c0 -97 56 -127 147 -127c50 0 122 16 179 34zM143 306v-33h253v47c0 87 -45 131 -129 131c-86 0 -124 -49 -124 -145zM197 560l27 190
h107l-70 -200z" />
    <glyph glyph-name="ecircumflex" unicode="&#xea;" 
d="M469 88l11 -64c-64 -20 -128 -34 -199 -34c-135 0 -241 44 -241 196v96c0 143 68 228 227 228c132 0 224 -58 224 -200v-86h-348v-43c0 -97 56 -127 147 -127c50 0 122 16 179 34zM143 306v-33h253v47c0 87 -45 131 -129 131c-86 0 -124 -49 -124 -145zM217 735h92
l90 -152h-86l-49 110l-49 -110h-85z" />
    <glyph glyph-name="edieresis" unicode="&#xeb;" 
d="M469 88l11 -64c-64 -20 -128 -34 -199 -34c-135 0 -241 44 -241 196v96c0 143 68 228 227 228c132 0 224 -58 224 -200v-86h-348v-43c0 -97 56 -127 147 -127c50 0 122 16 179 34zM143 306v-33h253v47c0 87 -45 131 -129 131c-86 0 -124 -49 -124 -145zM125 709h103v-132
h-103v132zM299 709h103v-132h-103v132z" />
    <glyph glyph-name="igrave" unicode="&#xec;" horiz-adv-x="222" 
d="M61 500h100v-500h-100v500zM151 749l27 -187l-70 -12l-64 199h107z" />
    <glyph glyph-name="iacute" unicode="&#xed;" horiz-adv-x="222" 
d="M61 500h100v-500h-100v500zM44 560l27 190h107l-70 -200z" />
    <glyph glyph-name="icircumflex" unicode="&#xee;" horiz-adv-x="222" 
d="M61 500h100v-500h-100v500zM63 735h93l90 -152h-86l-49 110l-49 -110h-86z" />
    <glyph glyph-name="idieresis" unicode="&#xef;" horiz-adv-x="222" 
d="M61 500h100v-500h-100v500zM-27 709h103v-132h-103v132zM146 709h104v-132h-104v132z" />
    <glyph glyph-name="ograve" unicode="&#xf2;" horiz-adv-x="558" 
d="M37 197v105c0 129 87 208 241 208c153 0 243 -79 243 -208v-105c0 -129 -90 -207 -243 -207c-154 0 -241 78 -241 207zM137 308v-109c0 -85 48 -147 141 -147s141 63 141 147v102c0 83 -48 146 -141 146c-89 0 -141 -58 -141 -139zM319 749l27 -187l-70 -12l-64 199h107z
" />
    <glyph glyph-name="oacute" unicode="&#xf3;" horiz-adv-x="558" 
d="M37 197v105c0 129 87 208 241 208c153 0 243 -79 243 -208v-105c0 -129 -90 -207 -243 -207c-154 0 -241 78 -241 207zM137 308v-109c0 -85 48 -147 141 -147s141 63 141 147v102c0 83 -48 146 -141 146c-89 0 -141 -58 -141 -139zM212 560l27 190h107l-70 -200z" />
    <glyph glyph-name="ocircumflex" unicode="&#xf4;" horiz-adv-x="558" 
d="M37 197v105c0 129 87 208 241 208c153 0 243 -79 243 -208v-105c0 -129 -90 -207 -243 -207c-154 0 -241 78 -241 207zM137 308v-109c0 -85 48 -147 141 -147s141 63 141 147v102c0 83 -48 146 -141 146c-89 0 -141 -58 -141 -139zM231 735h93l90 -152h-86l-50 110
l-49 -110h-85z" />
    <glyph glyph-name="otilde" unicode="&#xf5;" horiz-adv-x="558" 
d="M37 197v105c0 129 87 208 241 208c153 0 243 -79 243 -208v-105c0 -129 -90 -207 -243 -207c-154 0 -241 78 -241 207zM137 308v-109c0 -85 48 -147 141 -147s141 63 141 147v102c0 83 -48 146 -141 146c-89 0 -141 -58 -141 -139zM130 619l-19 53c22 17 59 47 109 47
c56 0 78 -42 124 -42c39 0 64 25 83 39l26 -49c-15 -20 -62 -57 -109 -57c-54 0 -78 41 -124 41c-44 0 -70 -20 -90 -32z" />
    <glyph glyph-name="odieresis" unicode="&#xf6;" horiz-adv-x="558" 
d="M37 197v105c0 129 87 208 241 208c153 0 243 -79 243 -208v-105c0 -129 -90 -207 -243 -207c-154 0 -241 78 -241 207zM137 308v-109c0 -85 48 -147 141 -147s141 63 141 147v102c0 83 -48 146 -141 146c-89 0 -141 -58 -141 -139zM140 709h103v-132h-103v132zM314 709
h103v-132h-103v132z" />
    <glyph glyph-name="ugrave" unicode="&#xf9;" horiz-adv-x="576" 
d="M61 500h100v-324c0 -83 38 -114 99 -114c65 0 127 31 155 55v383h100v-500h-100v52c-42 -27 -125 -62 -205 -62c-103 0 -149 65 -149 160v350zM328 749l27 -187l-70 -12l-64 199h107z" />
    <glyph glyph-name="uacute" unicode="&#xfa;" horiz-adv-x="576" 
d="M61 500h100v-324c0 -83 38 -114 99 -114c65 0 127 31 155 55v383h100v-500h-100v52c-42 -27 -125 -62 -205 -62c-103 0 -149 65 -149 160v350zM221 560l27 190h107l-70 -200z" />
    <glyph glyph-name="ucircumflex" unicode="&#xfb;" horiz-adv-x="576" 
d="M61 500h100v-324c0 -83 38 -114 99 -114c65 0 127 31 155 55v383h100v-500h-100v52c-42 -27 -125 -62 -205 -62c-103 0 -149 65 -149 160v350zM240 735h92l91 -152h-86l-50 110l-49 -110h-85z" />
    <glyph glyph-name="udieresis" unicode="&#xfc;" horiz-adv-x="576" 
d="M61 500h100v-324c0 -83 38 -114 99 -114c65 0 127 31 155 55v383h100v-500h-100v52c-42 -27 -125 -62 -205 -62c-103 0 -149 65 -149 160v350zM149 709h103v-132h-103v132zM323 709h103v-132h-103v132z" />
    <glyph glyph-name="circumflex" unicode="&#x2c6;" horiz-adv-x="435" 
d="M171 735h92l91 -152h-86l-50 110l-49 -110h-85z" />
    <glyph glyph-name="tilde" unicode="&#x2dc;" horiz-adv-x="480" 
d="M93 619l-19 53c21 17 59 47 108 47c56 0 78 -42 124 -42c39 0 64 25 84 39l26 -49c-16 -20 -62 -57 -110 -57c-54 0 -77 41 -124 41c-43 0 -69 -20 -89 -32z" />
    <glyph glyph-name="afii10023" unicode="&#x401;" horiz-adv-x="561" 
d="M163 909h103v-132h-103v132zM336 909h104v-132h-104v132zM184 333v-252h327v-81h-433v700h433v-81h-327v-207h281v-79h-281z" />
    <glyph glyph-name="afii10017" unicode="&#x410;" horiz-adv-x="652" 
d="M515 0l-60 190h-258l-60 -190h-112l236 700h132l234 -700h-112zM328 604l-110 -331h216z" />
    <glyph glyph-name="afii10018" unicode="&#x411;" horiz-adv-x="601" 
d="M184 609v-184h155c162 0 215 -77 215 -212c0 -118 -39 -213 -216 -213h-260v700h417v-91h-311zM314 341h-130v-256h130c84 0 135 22 135 128s-51 128 -135 128z" />
    <glyph glyph-name="afii10019" unicode="&#x412;" horiz-adv-x="592" 
d="M78 0v700h261c103 0 175 -47 175 -167c0 -79 -31 -129 -83 -148c69 -25 117 -78 117 -182c0 -121 -46 -203 -216 -203h-254zM184 329v-252h124c84 0 135 30 135 129c0 98 -72 123 -135 123h-124zM315 623h-131v-217h131c42 0 94 25 94 118c0 62 -32 99 -94 99z" />
    <glyph glyph-name="afii10020" unicode="&#x413;" horiz-adv-x="503" 
d="M184 0h-106v700h405v-92h-299v-608z" />
    <glyph glyph-name="afii10021" unicode="&#x414;" horiz-adv-x="738" 
d="M174 700h440v-619h80l-12 -281h-94v200h-462l-9 -200h-97v281h58c96 133 96 449 96 619zM508 613h-236c-2 -151 -3 -403 -92 -532h328v532z" />
    <glyph glyph-name="afii10022" unicode="&#x415;" horiz-adv-x="555" 
d="M184 333v-252h327v-81h-433v700h433v-81h-327v-207h281v-79h-281z" />
    <glyph glyph-name="afii10024" unicode="&#x416;" horiz-adv-x="839" 
d="M259 378l-245 322h117l220 -307h16v307h106v-307h16l219 307h118l-246 -322l245 -378h-112l-225 362h-15v-362h-106v362h-16l-225 -362h-112z" />
    <glyph glyph-name="afii10025" unicode="&#x417;" horiz-adv-x="580" 
d="M44 28l15 82c32 -9 107 -41 191 -41c107 0 175 28 175 125c0 131 -114 140 -194 140h-92v73h117c75 0 132 36 132 113c0 72 -40 110 -132 110c-66 0 -138 -20 -180 -35l-18 77c39 17 116 38 201 38c150 0 234 -38 234 -173c0 -80 -34 -131 -110 -152
c96 -26 150 -69 150 -197c0 -160 -113 -198 -283 -198c-94 0 -189 31 -206 38z" />
    <glyph glyph-name="afii10026" unicode="&#x418;" horiz-adv-x="735" 
d="M78 700h106v-549l380 549h93v-700h-106v549l-380 -549h-93v700z" />
    <glyph glyph-name="afii10027" unicode="&#x419;" horiz-adv-x="735" 
d="M162 886h81c0 -28 8 -77 131 -77s132 48 132 77h82v-22c0 -94 -123 -110 -214 -110c-86 0 -212 16 -212 110v22zM78 700h106v-549l380 549h93v-700h-106v549l-380 -549h-93v700z" />
    <glyph glyph-name="afii10028" unicode="&#x41a;" horiz-adv-x="631" 
d="M184 700v-307h13l291 307h129l-317 -321l320 -379h-124l-298 354h-14v-354h-106v700h106z" />
    <glyph glyph-name="afii10029" unicode="&#x41b;" horiz-adv-x="696" 
d="M177 700h441v-700h-106v610h-240c-4 -272 -27 -620 -193 -620c-15 0 -32 2 -46 5l-16 89c7 -1 18 -1 32 -1c94 0 128 222 128 617z" />
    <glyph glyph-name="afii10030" unicode="&#x41c;" horiz-adv-x="917" 
d="M199 563l-38 -563h-103l59 700h124l218 -604l216 604h125l59 -700h-103l-38 563l-205 -563h-110z" />
    <glyph glyph-name="afii10031" unicode="&#x41d;" horiz-adv-x="713" 
d="M529 700h106v-700h-106v337h-345v-337h-106v700h106v-282h345v282z" />
    <glyph glyph-name="afii10032" unicode="&#x41e;" horiz-adv-x="708" 
d="M44 266v165c0 162 111 279 310 279s310 -117 310 -279v-165c0 -162 -110 -276 -310 -276s-310 114 -310 276zM153 440v-181c0 -122 75 -189 201 -189c133 0 201 67 201 189v181c0 113 -68 190 -201 190c-121 0 -201 -70 -201 -190z" />
    <glyph glyph-name="afii10033" unicode="&#x41f;" horiz-adv-x="727" 
d="M184 0h-106v700h571v-700h-106v613h-359v-613z" />
    <glyph glyph-name="afii10034" unicode="&#x420;" horiz-adv-x="604" 
d="M78 700h227c175 0 255 -50 255 -223s-80 -236 -255 -236h-121v-241h-106v700zM184 624v-307h121c77 0 147 26 147 160c0 112 -55 147 -147 147h-121z" />
    <glyph glyph-name="afii10035" unicode="&#x421;" horiz-adv-x="559" 
d="M497 103l18 -75c-50 -17 -120 -38 -186 -38c-187 0 -285 97 -285 282v156c0 184 98 282 285 282c66 0 136 -18 186 -38l-21 -75c-50 19 -113 35 -165 35c-125 0 -177 -80 -177 -205v-155c0 -114 48 -204 177 -204c52 0 118 19 168 35z" />
    <glyph glyph-name="afii10036" unicode="&#x422;" horiz-adv-x="558" 
d="M24 616v84h510v-84h-202v-616h-106v616h-202z" />
    <glyph glyph-name="afii10037" unicode="&#x423;" horiz-adv-x="611" 
d="M289 149c-17 3 -56 20 -73 60l-206 491h113l189 -480h13l167 480h109l-201 -541c-44 -117 -110 -169 -195 -169c-63 0 -133 15 -167 27l21 78c36 -15 78 -27 128 -27c47 0 77 23 102 81z" />
    <glyph glyph-name="afii10038" unicode="&#x424;" horiz-adv-x="850" 
d="M372 733h106v-81h59c179 0 269 -82 269 -254v-57c0 -168 -90 -253 -269 -253h-59v-88h-106v88h-59c-179 0 -269 85 -269 253v57c0 172 90 254 269 254h59v81zM537 577h-59v-414h59c111 0 161 53 161 171v71c0 115 -49 172 -161 172zM152 334c0 -118 50 -171 161 -171h59
v413h-59c-112 0 -161 -55 -161 -171v-71z" />
    <glyph glyph-name="afii10039" unicode="&#x425;" horiz-adv-x="632" 
d="M141 700l188 -286l166 286h127l-243 -350l243 -350h-131l-187 284l-167 -284h-127l242 350l-242 350h131z" />
    <glyph glyph-name="afii10040" unicode="&#x426;" horiz-adv-x="750" 
d="M78 700h106v-619h336v619h106v-619h82l-9 -259h-99v178h-522v700z" />
    <glyph glyph-name="afii10041" unicode="&#x427;" horiz-adv-x="622" 
d="M58 700h106v-260c0 -92 44 -113 125 -113c50 0 102 1 149 6v367h106v-700h-106v248c-53 -5 -99 -7 -154 -7c-101 0 -226 26 -226 193v266z" />
    <glyph glyph-name="afii10042" unicode="&#x428;" horiz-adv-x="922" 
d="M408 700h106v-619h224v619h106v-700h-766v700h106v-619h224v619z" />
    <glyph glyph-name="afii10043" unicode="&#x429;" horiz-adv-x="968" 
d="M408 700h106v-619h224v619h106v-619h80l-9 -259h-97v178h-740v700h106v-619h224v619z" />
    <glyph glyph-name="afii10044" unicode="&#x42a;" horiz-adv-x="678" 
d="M152 0v623h-135l9 77h232v-275c41 6 99 11 139 11c166 0 237 -68 237 -219s-73 -217 -255 -217h-227zM379 362c-41 0 -79 -3 -121 -9v-281h121c92 0 146 30 146 145s-55 145 -146 145z" />
    <glyph glyph-name="afii10045" unicode="&#x42b;" horiz-adv-x="838" 
d="M654 0v700h106v-700h-106zM305 0c182 0 255 66 255 217c0 145 -67 219 -232 219c-44 0 -92 -3 -144 -11v275h-106v-700h227zM305 362c91 0 147 -30 147 -145s-55 -145 -147 -145h-121v281c42 6 81 9 121 9z" />
    <glyph glyph-name="afii10046" unicode="&#x42c;" horiz-adv-x="604" 
d="M305 0h-227v700h106v-275c41 6 91 12 130 12c176 0 246 -69 246 -220s-73 -217 -255 -217zM305 362c-40 0 -79 -3 -121 -9v-281h121c92 0 147 30 147 145s-56 145 -147 145z" />
    <glyph glyph-name="afii10047" unicode="&#x42d;" horiz-adv-x="559" 
d="M407 312v22h-268v69h268v14c0 138 -58 212 -169 212c-53 0 -138 -17 -191 -38l-20 81c34 15 117 38 203 38c171 0 285 -80 285 -282v-156c0 -185 -110 -282 -285 -282c-83 0 -162 19 -203 38l20 81c59 -22 126 -35 183 -35c148 0 177 116 177 238z" />
    <glyph glyph-name="afii10048" unicode="&#x42e;" horiz-adv-x="896" 
d="M301 237v93h-117v-330h-106v700h106v-298h117v57c0 149 96 251 275 251c180 0 276 -102 276 -266v-195c0 -164 -96 -259 -276 -259c-179 0 -275 95 -275 247zM406 460v-220c0 -98 60 -172 170 -172c111 0 171 74 171 172v220c0 98 -60 172 -171 172
c-106 0 -170 -74 -170 -172z" />
    <glyph glyph-name="afii10049" unicode="&#x42f;" horiz-adv-x="668" 
d="M320 700h270v-700h-106v264h-132l-164 -264h-120l180 272c-127 10 -186 93 -186 212c0 131 75 216 258 216zM320 339h164v277h-164c-93 0 -147 -33 -147 -139c0 -105 55 -138 147 -138z" />
    <glyph glyph-name="afii10065" unicode="&#x430;" 
d="M82 414l-13 65c32 11 108 31 199 31c160 0 200 -69 200 -181v-329h-100v37c-28 -20 -85 -48 -156 -48c-118 0 -172 52 -172 153c0 96 74 138 186 138h142v65c0 68 -30 98 -104 98c-65 0 -142 -16 -182 -29zM251 58c38 0 91 23 117 35v123h-121c-74 0 -104 -38 -104 -73
c0 -60 32 -85 108 -85z" />
    <glyph glyph-name="afii10066" unicode="&#x431;" horiz-adv-x="579" 
d="M51 217v250c0 131 56 209 162 227l184 31c41 7 75 25 103 38l29 -85c-18 -11 -60 -28 -87 -32l-188 -30c-73 -11 -112 -77 -112 -145v-118c15 62 58 123 184 123c123 0 211 -55 211 -201v-75c0 -124 -76 -211 -243 -211c-166 0 -243 87 -243 228zM294 60
c88 0 141 57 141 142v69c0 84 -53 137 -141 137c-90 0 -141 -74 -141 -159v-47c0 -87 51 -142 141 -142z" />
    <glyph glyph-name="afii10067" unicode="&#x432;" 
d="M61 0v500h241c96 0 148 -28 148 -122c0 -54 -30 -85 -68 -102c53 -8 109 -32 109 -127c0 -122 -70 -149 -204 -149h-226zM277 227h-122v-164h124c78 0 116 19 116 89c0 56 -35 75 -118 75zM155 288h120c54 0 79 25 79 78c0 44 -24 73 -79 73h-120v-151z" />
    <glyph glyph-name="afii10068" unicode="&#x433;" horiz-adv-x="410" 
d="M161 0h-100v500h332v-79h-232v-421z" />
    <glyph glyph-name="afii10069" unicode="&#x434;" horiz-adv-x="621" 
d="M151 500h366v-431h60l-8 -229h-86v160h-369l-8 -160h-86v229h48c83 88 83 302 83 431zM417 437h-173c0 -119 -4 -255 -75 -368h248v368z" />
    <glyph glyph-name="afii10070" unicode="&#x435;" 
d="M469 98l11 -74c-64 -20 -128 -34 -199 -34c-135 0 -241 44 -241 196v96c0 143 68 228 227 228c132 0 224 -58 224 -200v-86h-348v-43c0 -97 56 -117 147 -117c50 0 122 16 179 34zM143 306v-23h253v37c0 87 -45 121 -129 121c-86 0 -124 -39 -124 -135z" />
    <glyph glyph-name="afii10072" unicode="&#x436;" horiz-adv-x="717" 
d="M11 500h106l183 -229h11v229h97v-229h10l181 229h108l-198 -240l197 -260h-107l-181 249h-10v-249h-97v249h-11l-185 -249h-105l202 260z" />
    <glyph glyph-name="afii10073" unicode="&#x437;" horiz-adv-x="506" 
d="M40 27l17 66c15 -8 81 -39 144 -39c109 0 163 35 163 98c0 66 -56 83 -134 83h-114v64h107c35 0 105 7 105 76c0 44 -44 72 -127 72c-43 0 -105 -19 -139 -34l-16 62c34 15 96 35 169 35c136 0 215 -24 215 -120c0 -53 -29 -90 -79 -105c60 -17 118 -35 118 -134
c0 -128 -111 -160 -254 -160c-87 0 -158 26 -175 36z" />
    <glyph glyph-name="afii10074" unicode="&#x438;" horiz-adv-x="589" 
d="M61 500h100v-377l277 377h90v-500h-100v376l-277 -376h-90v500z" />
    <glyph glyph-name="afii10075" unicode="&#x439;" horiz-adv-x="589" 
d="M91 715h82v-4c0 -33 0 -74 122 -74c104 0 122 42 122 78h82v-20c0 -98 -108 -118 -204 -118s-204 20 -204 118v20zM61 500h100v-377l277 377h90v-500h-100v376l-277 -376h-90v500z" />
    <glyph glyph-name="afii10076" unicode="&#x43a;" horiz-adv-x="517" 
d="M161 500v-220h4l217 220h127l-251 -239l251 -261h-121l-223 241h-4v-241h-100v500h100z" />
    <glyph glyph-name="afii10077" unicode="&#x43b;" horiz-adv-x="583" 
d="M159 500h363v-500h-100v434h-177c0 -190 -7 -441 -174 -441c-10 0 -32 3 -44 7l-10 77c13 -2 21 -3 33 -3c87 0 109 216 109 426z" />
    <glyph glyph-name="afii10078" unicode="&#x43c;" horiz-adv-x="777" 
d="M182 403l-32 -403h-92l46 500h113l172 -428l171 428h113l46 -500h-91l-33 403l-166 -403h-87z" />
    <glyph glyph-name="afii10079" unicode="&#x43d;" horiz-adv-x="582" 
d="M421 500h100v-500h-100v229h-260v-229h-100v500h100v-205h260v205z" />
    <glyph glyph-name="afii10080" unicode="&#x43e;" horiz-adv-x="558" 
d="M37 197v105c0 129 87 208 241 208c153 0 243 -79 243 -208v-105c0 -129 -90 -207 -243 -207c-154 0 -241 78 -241 207zM137 318v-129c0 -85 48 -132 141 -132s141 48 141 132v129c0 83 -48 124 -141 124c-89 0 -141 -43 -141 -124z" />
    <glyph glyph-name="afii10081" unicode="&#x43f;" horiz-adv-x="575" 
d="M161 0h-100v500h453v-500h-100v431h-253v-431z" />
    <glyph glyph-name="afii10082" unicode="&#x440;" horiz-adv-x="566" 
d="M161 -200h-100v700h100v-37c27 17 81 49 155 49c138 0 209 -85 209 -262c0 -171 -63 -257 -209 -257c-74 0 -123 27 -155 44v-237zM276 438c-51 0 -90 -19 -115 -35v-306c27 -14 68 -35 121 -35c69 1 141 33 141 188c0 156 -74 188 -147 188z" />
    <glyph glyph-name="afii10083" unicode="&#x441;" horiz-adv-x="463" 
d="M431 98l15 -72c-37 -19 -93 -36 -166 -36c-144 0 -240 74 -240 221v77c0 139 95 222 240 222c49 0 117 -14 166 -36l-16 -73c-33 14 -90 35 -134 35c-101 0 -150 -51 -150 -154v-65c0 -104 50 -154 150 -154c48 0 87 14 135 35z" />
    <glyph glyph-name="afii10084" unicode="&#x442;" horiz-adv-x="482" 
d="M20 421v79h442v-79h-170v-421h-100v421h-172z" />
    <glyph glyph-name="afii10085" unicode="&#x443;" horiz-adv-x="541" 
d="M9 500h111l175 -439l128 439h108l-169 -495c-23 -67 -46 -112 -68 -150c-27 -47 -67 -85 -142 -85c-45 0 -96 13 -129 27l19 69c24 -9 68 -22 98 -22c40 0 71 14 91 62l39 94c-26 2 -62 24 -74 60z" />
    <glyph glyph-name="afii10086" unicode="&#x444;" horiz-adv-x="797" 
d="M349 700h100v-212c17 8 58 22 96 22c154 0 215 -99 215 -253c0 -160 -62 -267 -215 -267c-38 0 -79 13 -96 22v-212h-100v212c-18 -9 -57 -22 -96 -22c-154 0 -216 105 -216 267c0 153 62 253 216 253c40 0 78 -15 96 -22v212zM283 56c26 0 51 10 66 17v353
c-17 8 -34 18 -66 18c-99 0 -143 -76 -143 -187c0 -137 50 -201 143 -201zM514 444c-32 0 -53 -11 -65 -18v-353c12 -7 34 -17 65 -17c97 0 144 68 144 201c0 116 -49 187 -144 187z" />
    <glyph glyph-name="afii10087" unicode="&#x445;" horiz-adv-x="516" 
d="M125 500l149 -202l121 202h111l-187 -258l187 -242h-115l-147 202l-122 -202h-112l186 262l-186 238h115z" />
    <glyph glyph-name="afii10088" unicode="&#x446;" horiz-adv-x="598" 
d="M61 500h100v-431h240v431h100v-431h60l-10 -229h-90v160h-400v500z" />
    <glyph glyph-name="afii10089" unicode="&#x447;" horiz-adv-x="542" 
d="M51 500h100v-159c0 -79 23 -113 110 -113c45 0 91 8 120 13v259h100v-500h-100v173c-37 -6 -91 -14 -144 -14c-126 0 -186 54 -186 197v144z" />
    <glyph glyph-name="afii10090" unicode="&#x448;" horiz-adv-x="794" 
d="M350 500h94v-431h192v431h97v-500h-672v500h97v-431h192v431z" />
    <glyph glyph-name="afii10091" unicode="&#x449;" horiz-adv-x="830" 
d="M61 0v500h97v-431h192v431h94v-431h192v431h97v-431h60l-9 -229h-91v160h-632z" />
    <glyph glyph-name="afii10092" unicode="&#x44a;" horiz-adv-x="593" 
d="M17 435l6 65h221v-181h107c127 0 201 -28 201 -156c0 -134 -84 -163 -210 -163h-198v435h-127zM346 260h-102v-199h104c79 0 102 31 102 102c0 57 -21 97 -104 97z" />
    <glyph glyph-name="afii10093" unicode="&#x44b;" horiz-adv-x="716" 
d="M553 0v500h102v-500h-102zM61 0v500h100v-181h106c128 0 202 -28 202 -156c0 -134 -85 -163 -211 -163h-197zM263 260h-102v-199h104c78 0 102 31 102 102c0 57 -21 97 -104 97z" />
    <glyph glyph-name="afii10094" unicode="&#x44c;" horiz-adv-x="510" 
d="M61 0v500h100v-181h106c128 0 202 -28 202 -156c0 -134 -85 -163 -211 -163h-197zM263 260h-102v-199h104c78 0 102 31 102 102c0 57 -21 97 -104 97z" />
    <glyph glyph-name="afii10095" unicode="&#x44d;" horiz-adv-x="491" 
d="M348 205v17h-233v64h233v11c0 95 -53 148 -153 148c-50 0 -94 -16 -138 -36l-17 63c50 22 113 38 174 38c145 0 237 -75 237 -222v-77c0 -147 -93 -221 -237 -221c-63 0 -126 16 -177 38l16 62c48 -18 93 -35 142 -35c99 0 153 54 153 150z" />
    <glyph glyph-name="afii10096" unicode="&#x44e;" horiz-adv-x="793" 
d="M272 222h-117v-222h-94v500h94v-215h116v34c0 123 103 191 241 191c145 0 241 -74 241 -211v-99c0 -137 -96 -210 -241 -210c-135 0 -240 73 -240 208v24zM372 300v-106c0 -81 51 -139 140 -139c87 0 139 58 139 139v106c0 86 -49 144 -139 144c-88 0 -140 -58 -140 -144
z" />
    <glyph glyph-name="afii10097" unicode="&#x44f;" horiz-adv-x="565" 
d="M245 500h259v-500h-100v177h-105l-142 -177h-115l158 183c-86 2 -156 30 -156 150c0 118 72 167 201 167zM150 333c0 -68 32 -93 113 -93h141v194h-141c-81 0 -113 -32 -113 -101z" />
    <glyph glyph-name="afii10071" unicode="&#x451;" 
d="M125 709h103v-132h-103v132zM299 709h103v-132h-103v132zM469 98l11 -74c-64 -20 -128 -34 -199 -34c-135 0 -241 44 -241 196v96c0 143 68 228 227 228c132 0 224 -58 224 -200v-86h-348v-43c0 -97 56 -117 147 -117c50 0 122 16 179 34zM143 306v-23h253v37
c0 87 -45 121 -129 121c-86 0 -124 -39 -124 -135z" />
    <glyph glyph-name="endash" unicode="&#x2013;" horiz-adv-x="656" 
d="M78 303v88h500v-88h-500z" />
    <glyph glyph-name="emdash" unicode="&#x2014;" horiz-adv-x="926" 
d="M78 303v88h770v-88h-770z" />
    <glyph glyph-name="quoteleft" unicode="&#x2018;" horiz-adv-x="271" 
d="M191 462h-120v82c0 87 41 161 77 206l39 -18c-22 -37 -40 -88 -40 -136h44v-134z" />
    <glyph glyph-name="quoteright" unicode="&#x2019;" horiz-adv-x="271" 
d="M75 700h121v-82c0 -87 -42 -161 -78 -206l-39 18c22 37 40 88 40 136h-44v134z" />
    <glyph glyph-name="quotesinglbase" unicode="&#x201a;" horiz-adv-x="271" 
d="M75 134h121v-82c0 -87 -42 -161 -78 -206l-39 18c22 37 40 88 40 136h-44v134z" />
    <glyph glyph-name="quotedblleft" unicode="&#x201c;" horiz-adv-x="445" 
d="M364 462h-120v82c0 87 41 161 77 206l39 -18c-22 -37 -40 -88 -40 -136h44v-134zM191 462h-120v82c0 87 41 161 77 206l39 -18c-22 -37 -40 -88 -40 -136h44v-134z" />
    <glyph glyph-name="quotedblright" unicode="&#x201d;" horiz-adv-x="445" 
d="M75 700h121v-82c0 -87 -42 -161 -78 -206l-39 18c22 37 40 88 40 136h-44v134zM248 700h121v-82c0 -87 -42 -161 -78 -206l-39 18c22 37 40 88 40 136h-44v134z" />
    <glyph glyph-name="quotedblbase" unicode="&#x201e;" horiz-adv-x="445" 
d="M75 134h121v-82c0 -87 -42 -161 -78 -206l-39 18c22 37 40 88 40 136h-44v134zM248 134h121v-82c0 -87 -42 -161 -78 -206l-39 18c22 37 40 88 40 136h-44v134z" />
    <glyph glyph-name="bullet" unicode="&#x2022;" horiz-adv-x="357" 
d="M78 286c0 55 26 101 100 101s101 -46 101 -101c0 -56 -27 -101 -101 -101s-100 45 -100 101z" />
    <glyph glyph-name="ellipsis" unicode="&#x2026;" horiz-adv-x="662" 
d="M75 134h121v-134h-121v134zM271 134h120v-134h-120v134zM466 134h121v-134h-121v134z" />
    <glyph glyph-name="perthousand" unicode="&#x2030;" horiz-adv-x="1279" 
d="M702 701l-397 -701h-100l399 701h98zM677 -10c-103 0 -154 58 -154 146v75c0 89 52 148 154 148c101 0 154 -58 154 -148v-75c0 -88 -52 -146 -154 -146zM232 710c102 0 155 -59 155 -148v-75c0 -88 -53 -146 -155 -146s-154 58 -154 146v75c0 89 53 148 154 148z
M162 555v-54c0 -54 17 -95 70 -95s70 40 70 90v54c0 47 -15 94 -70 94c-52 0 -70 -42 -70 -89zM677 294c-54 0 -70 -47 -70 -100v-49c0 -51 18 -90 70 -90c53 0 69 41 69 90v59c0 47 -16 90 -69 90zM1047 -10c-103 0 -154 58 -154 146v75c0 89 52 148 154 148
c101 0 154 -58 154 -148v-75c0 -88 -52 -146 -154 -146zM1047 294c-54 0 -70 -47 -70 -100v-49c0 -51 18 -90 70 -90c53 0 69 41 69 90v59c0 47 -16 90 -69 90z" />
    <glyph glyph-name="Euro" unicode="&#x20ac;" horiz-adv-x="687" 
d="M91 389l-13 56h54v13c0 182 108 252 272 252c80 0 158 -20 203 -39l-20 -76c-39 17 -110 34 -169 34c-111 0 -181 -54 -181 -171v-13h323l-10 -56h-313v-71h300l-9 -55h-291v-20c0 -106 70 -172 181 -172c60 0 123 15 173 34l18 -77c-50 -19 -124 -38 -205 -38
c-166 0 -272 83 -272 253v20h-41l-13 55h53v71h-40z" />
    <glyph glyph-name="afii61352" unicode="&#x2116;" horiz-adv-x="1060" 
d="M514 112h9l-10 82v506h94v-700h-110l-308 532l-20 56h-8l10 -76v-512h-93v700h112l304 -527zM684 427v34c0 90 51 146 147 146s148 -56 148 -146v-34c0 -90 -52 -145 -148 -145s-147 55 -147 145zM764 458v-28c0 -54 16 -79 67 -79s67 25 67 79v28c0 54 -16 80 -67 80
c-50 0 -67 -26 -67 -80zM682 120v75h300v-75h-300z" />
    <glyph glyph-name="trademark" unicode="&#x2122;" horiz-adv-x="891" 
d="M54 634v66h275v-66h-100v-283h-76v283h-99zM469 589l-22 -238h-69l30 349h83l111 -269l111 269h84l29 -349h-68l-22 238l-94 -238h-79z" />
    <glyph glyph-name=".null" horiz-adv-x="0" 
 />
    <glyph glyph-name="percent" unicode="%" horiz-adv-x="909" 
d="M677 -10c-103 0 -154 58 -154 146v75c0 89 52 148 154 148c101 0 154 -58 154 -148v-75c0 -88 -52 -146 -154 -146zM232 710c102 0 155 -59 155 -148v-75c0 -88 -53 -146 -155 -146s-154 58 -154 146v75c0 89 53 148 154 148zM162 555v-54c0 -54 17 -95 70 -95
s70 40 70 90v54c0 47 -15 94 -70 94c-52 0 -70 -42 -70 -89zM677 294c-54 0 -70 -47 -70 -100v-49c0 -51 18 -90 70 -90c53 0 69 41 69 90v59c0 47 -16 90 -69 90zM702 700l-397 -700h-100l399 700h98z" />
    <glyph glyph-name="CR" horiz-adv-x="360" 
 />
    <glyph glyph-name="afii10022.001" horiz-adv-x="561" 
d="M184 337v-257h327v-80h-433v700h433v-80h-327v-208h281v-75h-281z" />
    <glyph glyph-name="currency" unicode="&#xa4;" horiz-adv-x="635" 
d="M30 241v76h78v383h227c175 0 255 -50 255 -223s-80 -236 -255 -236h-121v-59h316v-76h-316v-106h-106v106h-78v76h78v59h-78zM214 624v-307h121c77 0 147 26 147 160c0 112 -55 147 -147 147h-121z" />
    <glyph glyph-name="macron" unicode="&#xaf;" horiz-adv-x="311" 
d="M0 590v82h310v-82h-310z" />
    <glyph glyph-name="amacron" unicode="&#x101;" 
d="M82 414l-13 65c32 11 108 31 199 31c160 0 200 -69 200 -181v-329h-100v37c-28 -20 -85 -48 -156 -48c-118 0 -172 52 -172 153c0 96 74 138 186 138h142v65c0 68 -30 98 -104 98c-65 0 -142 -16 -182 -29zM251 58c38 0 91 23 117 35v123h-120c-74 0 -105 -38 -105 -73
c0 -60 32 -85 108 -85zM109 590v82h310v-82h-310z" />
    <glyph glyph-name="emacron" unicode="&#x113;" 
d="M469 98l11 -74c-64 -20 -128 -34 -199 -34c-135 0 -241 44 -241 196v96c0 143 68 228 227 228c132 0 224 -58 224 -200v-86h-348v-43c0 -97 56 -117 147 -117c50 0 122 16 179 34zM143 306v-23h253v37c0 87 -45 121 -129 121c-86 0 -124 -39 -124 -135zM113 590v82h310
v-82h-310z" />
    <glyph glyph-name="umacron" unicode="&#x16b;" horiz-adv-x="576" 
d="M61 500h100v-324c0 -83 38 -114 99 -114c65 0 127 31 155 55v383h100v-500h-100v52c-42 -27 -125 -62 -205 -62c-103 0 -149 65 -149 160v350zM143 590v82h310v-82h-310z" />
    <glyph glyph-name="dotlessi" unicode="&#x131;" horiz-adv-x="222" 
d="M61 500h100v-500h-100v500z" />
    <glyph glyph-name="imacron" unicode="&#x12b;" horiz-adv-x="222" 
d="M61 500h100v-500h-100v500zM-44 590v82h310v-82h-310z" />
    <glyph glyph-name="Emacron" unicode="&#x112;" horiz-adv-x="555" 
d="M184 333v-252h327v-81h-433v700h433v-81h-327v-207h281v-79h-281zM143 777v82h310v-82h-310z" />
    <glyph glyph-name="Amacron" unicode="&#x100;" horiz-adv-x="652" 
d="M515 0l-60 190h-258l-60 -190h-112l236 700h132l234 -700h-112zM328 604l-110 -331h216zM171 777v82h310v-82h-310z" />
    <glyph glyph-name="Umacron" unicode="&#x16a;" horiz-adv-x="653" 
d="M491 700h98v-450c0 -167 -78 -260 -253 -260c-185 0 -272 93 -272 260v450h106v-462c0 -118 63 -169 169 -169s152 52 152 169v462zM180 777v82h310v-82h-310z" />
    <glyph glyph-name="uni012A" unicode="&#x12a;" horiz-adv-x="388" 
d="M30 629v71h325v-71h-110v-558h113v-71h-325v71h106v558h-109zM40 777v82h310v-82h-310z" />
    <glyph glyph-name="caron" unicode="&#x2c7;" horiz-adv-x="270" 
d="M179 576h-92l-87 152h85l49 -110l50 110h86z" />
    <glyph glyph-name="zcaron" unicode="&#x17e;" horiz-adv-x="499" 
d="M53 426v74h402v-52l-287 -374h290v-74h-421v52l290 374h-274zM299 576h-92l-87 152h85l49 -110l50 110h86z" />
    <glyph glyph-name="ccaron" unicode="&#x10d;" horiz-adv-x="463" 
d="M431 98l15 -72c-37 -19 -93 -36 -166 -36c-144 0 -240 74 -240 221v77c0 139 95 222 240 222c49 0 117 -14 166 -36l-16 -73c-33 14 -90 35 -134 35c-101 0 -150 -51 -150 -154v-65c0 -104 50 -154 150 -154c48 0 87 16 135 35zM316 576h-92l-87 152h85l49 -110l50 110
h86z" />
    <glyph glyph-name="scaron" unicode="&#x161;" horiz-adv-x="504" 
d="M259 510c81 0 142 -17 189 -31l-14 -69c-52 16 -105 31 -176 31c-92 0 -117 -40 -117 -73c0 -30 19 -52 48 -61c113 -36 277 -30 277 -180c0 -116 -88 -137 -208 -137c-80 0 -155 14 -219 32l9 70c60 -15 134 -33 202 -33c101 0 116 36 116 60c0 30 -16 53 -53 67
c-108 41 -272 29 -272 182c0 104 93 142 218 142zM296 576h-92l-87 152h85l49 -110l50 110h86z" />
    <glyph glyph-name="Scaron" unicode="&#x160;" horiz-adv-x="610" 
d="M309 710c93 0 165 -16 239 -40l-16 -82c-68 24 -146 43 -223 43c-117 0 -153 -50 -153 -100c0 -49 35 -80 87 -101c169 -69 323 -59 323 -246c0 -136 -117 -194 -261 -194c-75 0 -190 12 -259 45l15 80c68 -28 169 -46 244 -46c146 0 153 86 153 109c0 62 -24 84 -97 108
c-146 48 -314 63 -314 238c0 131 118 186 262 186zM349 776h-92l-87 152h85l49 -110l50 110h86z" />
    <glyph glyph-name="Ccaron" unicode="&#x10c;" horiz-adv-x="559" 
d="M497 103l18 -75c-50 -17 -120 -38 -186 -38c-187 0 -285 97 -285 282v156c0 184 98 282 285 282c66 0 136 -18 186 -38l-21 -75c-50 19 -113 35 -165 35c-125 0 -177 -80 -177 -205v-155c0 -114 48 -204 177 -204c52 0 118 19 168 35zM363 776h-92l-87 152h85l49 -110
l50 110h86z" />
    <glyph glyph-name="Zcaron" unicode="&#x17d;" horiz-adv-x="606" 
d="M48 615v85h511v-75l-390 -540h396v-85h-524v75l393 540h-386zM354 776h-92l-87 152h85l49 -110l50 110h86z" />
    <glyph glyph-name="commaaccent" horiz-adv-x="103" 
d="M0 -37h103v-69c0 -74 -36 -137 -66 -175l-33 15c19 32 34 75 34 115h-38v114z" />
    <glyph glyph-name="kcommaaccent" unicode="&#x137;" horiz-adv-x="514" 
d="M161 700v-414h14l207 214h124l-245 -239l245 -261h-118l-213 238h-14v-238h-100v700h100zM205 -37h103v-69c0 -74 -36 -137 -66 -175l-33 15c19 32 34 75 34 115h-38v114z" />
    <glyph glyph-name="lcommaaccent" unicode="&#x13c;" horiz-adv-x="222" 
d="M161 0h-100v750h100v-750zM59 -37h103v-69c0 -74 -36 -137 -66 -175l-33 15c19 32 34 75 34 115h-38v114z" />
    <glyph glyph-name="ncommaaccent" unicode="&#x146;" horiz-adv-x="576" 
d="M515 0h-100v324c0 83 -27 114 -112 114c-55 0 -114 -31 -142 -56v-382h-100v500h100v-52c39 24 114 62 191 62c122 0 163 -60 163 -179v-331zM234 -37h103v-69c0 -74 -36 -137 -66 -175l-33 15c19 32 34 75 34 115h-38v114z" />
    <glyph glyph-name="gcommaaccent" unicode="&#x123;" horiz-adv-x="564" 
d="M294 510c74 0 118 -17 142 -32c5 23 5 38 5 72h101c-1 -47 -13 -87 -58 -104c22 -21 36 -50 36 -95c0 -125 -103 -151 -226 -151c-24 0 -67 2 -86 6c-5 -8 -12 -30 -12 -47c0 -12 7 -34 15 -45c19 4 61 5 83 5c142 0 250 -30 250 -159c0 -130 -107 -160 -250 -160
c-142 0 -249 30 -249 160c0 71 38 112 91 136c-14 13 -29 36 -29 62c0 32 13 52 30 67c-36 21 -68 60 -68 126c0 125 105 159 225 159zM445 -40c0 64 -27 95 -151 95c-101 0 -150 -29 -150 -95c0 -54 27 -97 150 -97c124 0 151 42 151 97zM420 351c0 61 -37 97 -126 97
c-101 0 -126 -41 -126 -97c0 -64 25 -90 126 -90c95 0 126 25 126 90zM338 571h-103v69c0 74 36 137 66 175l33 -15c-19 -32 -34 -75 -34 -115h38v-114z" />
    <glyph glyph-name="Gcommaaccent" unicode="&#x122;" horiz-adv-x="612" 
d="M568 30c-73 -27 -154 -40 -232 -40c-194 0 -292 94 -292 278v162c0 184 98 280 292 280c73 0 147 -9 217 -31l-21 -79c-63 21 -128 27 -186 27c-140 0 -194 -73 -194 -205v-159c0 -123 54 -199 184 -199c42 0 75 4 126 18v209l-135 6v79h241v-346zM278 -37h103v-69
c0 -74 -36 -137 -66 -175l-33 15c19 32 34 75 34 115h-38v114z" />
    <glyph glyph-name="Kcommaaccent" unicode="&#x136;" horiz-adv-x="631" 
d="M184 700v-307h13l291 307h129l-317 -321l320 -379h-124l-298 354h-14v-354h-106v700h106zM272 -37h103v-69c0 -74 -36 -137 -66 -175l-33 15c19 32 34 75 34 115h-38v114z" />
    <glyph glyph-name="Ncommaaccent" unicode="&#x145;" horiz-adv-x="760" 
d="M581 700h101v-700h-110l-394 553v-553h-100v700h112l391 -550v550zM328 -37h103v-69c0 -74 -36 -137 -66 -175l-33 15c19 32 34 75 34 115h-38v114z" />
    <glyph glyph-name="Lcommaaccent" unicode="&#x13b;" horiz-adv-x="572" 
d="M78 0v700h106v-619h347v-81h-453zM271 -37h103v-69c0 -74 -36 -137 -66 -175l-33 15c19 32 34 75 34 115h-38v114z" />
    <glyph glyph-name="ae" unicode="&#xe6;" horiz-adv-x="853" 
d="M793 98l11 -74c-64 -20 -128 -34 -199 -34c-77 0 -143 14 -186 54c-74 -38 -143 -55 -203 -55c-112 0 -176 52 -176 153c0 96 74 138 186 138h142v65c0 68 -30 98 -104 98c-65 0 -142 -16 -182 -29l-13 65c32 11 108 31 199 31c78 0 127 -17 160 -57c45 40 89 57 163 57
c132 0 224 -58 224 -200v-86h-348v-43c0 -97 56 -117 147 -117c50 0 122 16 179 34zM467 306v-23h253v37c0 87 -45 121 -129 121c-86 0 -124 -39 -124 -135zM251 58c38 0 93 18 132 38c-10 25 -15 54 -15 90v30h-120c-74 0 -105 -38 -105 -73c0 -60 32 -85 108 -85z" />
    <glyph glyph-name="oe" unicode="&#x153;" horiz-adv-x="907" 
d="M847 98l11 -74c-64 -20 -128 -34 -199 -34c-81 0 -147 11 -195 70c-57 -55 -111 -70 -186 -70c-154 0 -241 78 -241 207v105c0 129 87 208 241 208c79 0 140 -19 189 -73c53 55 95 73 178 73c132 0 224 -58 224 -200v-86h-348v-43c0 -97 56 -117 147 -117
c50 0 122 16 179 34zM137 318v-129c0 -85 48 -132 141 -132c92 0 141 47 141 129v132c0 83 -48 124 -141 124c-89 0 -141 -43 -141 -124zM521 306v-23h253v37c0 87 -45 121 -129 121c-86 0 -124 -39 -124 -135z" />
    <glyph glyph-name="AE" unicode="&#xc6;" horiz-adv-x="971" 
d="M600 333v-252h327v-81h-433v190h-229l-128 -190h-112l469 700h433v-81h-327v-207h281v-79h-281zM494 534l-176 -261h176v261z" />
    <glyph glyph-name="OE" unicode="&#x152;" horiz-adv-x="990" 
d="M619 333v-252h327v-81h-433c-62 -5 -98 -10 -159 -10c-200 0 -310 114 -310 276v165c0 162 111 279 310 279c52 0 106 -5 159 -10h433v-81h-327v-207h281v-79h-281zM153 440v-181c0 -122 75 -189 207 -189c66 0 105 4 153 14v534c-58 8 -93 12 -159 12
c-121 0 -201 -70 -201 -190z" />
    <glyph glyph-name="cedilla" unicode="&#xb8;" horiz-adv-x="172" 
d="M45 27h58l-13 -50c48 -3 83 -24 83 -75c0 -56 -40 -92 -98 -92c-33 0 -65 7 -92 22l28 54c21 -11 42 -15 61 -15c20 0 32 9 32 25c0 14 -12 22 -42 22c-29 0 -49 -3 -49 -3z" />
    <glyph glyph-name="ccedilla" unicode="&#xe7;" horiz-adv-x="463" 
d="M431 98l15 -72c-36 -18 -89 -34 -157 -36l-6 -23c48 -3 83 -24 83 -75c0 -56 -40 -92 -98 -92c-33 0 -65 7 -92 22l28 54c21 -11 42 -15 61 -15c20 0 32 9 32 25c0 14 -12 22 -42 22c-29 0 -49 -3 -49 -3l25 88c-117 15 -191 88 -191 218v77c0 139 95 222 240 222
c49 0 117 -14 166 -36l-16 -73c-33 14 -90 35 -134 35c-101 0 -150 -51 -150 -154v-65c0 -104 50 -154 150 -154c48 0 87 16 135 35z" />
    <glyph glyph-name="infinity" unicode="&#x221e;" horiz-adv-x="833" 
 />
    <glyph glyph-name="Ccedilla" unicode="&#xc7;" horiz-adv-x="559" 
d="M497 103l18 -75c-50 -17 -120 -38 -186 -38l-5 -20c48 -3 83 -24 83 -75c0 -56 -40 -92 -98 -92c-33 0 -65 7 -92 22l28 54c21 -11 42 -15 61 -15c20 0 32 9 32 25c0 14 -12 22 -42 22c-29 0 -49 -3 -49 -3l24 86c-149 18 -227 113 -227 278v156c0 184 98 282 285 282
c66 0 136 -18 186 -38l-21 -75c-50 19 -113 35 -165 35c-125 0 -177 -80 -177 -205v-155c0 -114 48 -204 177 -204c52 0 118 19 168 35z" />
    </font>
</defs>
</svg>
