<?xml version="1.0" standalone="no"?>
<!DOCTYPE svg PUBLIC "-//W3C//DTD SVG 1.1//EN" "http://www.w3.org/Graphics/SVG/1.1/DTD/svg11.dtd" >
<svg>
<metadata>
Created by FontForge 20120731 at Thu Sep 25 16:52:33 2014
 By World Wide Web Server
Copyright (c) 2006 by Zakhar Yashchin. All rights reserved.
</metadata>
<defs>
<font id="ALSEkibastuz-Black" horiz-adv-x="624" >
  <font-face 
    font-family="ALS Ekibastuz "
    font-weight="900"
    font-stretch="normal"
    units-per-em="1000"
    panose-1="2 0 9 3 0 0 0 2 0 4"
    ascent="800"
    descent="-200"
    x-height="500"
    cap-height="700"
    bbox="-82 -251 1362 950"
    underline-thickness="50"
    underline-position="-50"
    stemh="149"
    stemv="194"
    unicode-range="U+0020-2122"
  />
<missing-glyph horiz-adv-x="440" 
 />
    <glyph glyph-name=".notdef" horiz-adv-x="440" 
 />
    <glyph glyph-name="space" unicode=" " horiz-adv-x="278" 
 />
    <glyph glyph-name="exclam" unicode="!" horiz-adv-x="304" 
d="M52 700h200l-24 -467h-152zM52 174h200v-174h-200v174z" />
    <glyph glyph-name="quotedbl" unicode="&#x22;" horiz-adv-x="489" 
d="M264 700h165l-10 -230h-145zM60 700h165l-10 -230h-145z" />
    <glyph glyph-name="numbersign" unicode="#" horiz-adv-x="797" 
d="M62 413v141h137l28 146h168l-29 -146h146l28 146h167l-29 -146h57v-141h-85l-24 -126h109v-141h-137l-28 -146h-166l28 146h-146l-28 -146h-167l28 146h-57v141h85l24 126h-109zM338 413l-24 -126h146l24 126h-146z" />
    <glyph glyph-name="dollar" unicode="$" horiz-adv-x="644" 
d="M268 730h110v-60c78 -3 146 -14 206 -29l-20 -131c-51 12 -124 22 -186 23v-114c123 -10 228 -65 228 -218c0 -149 -86 -205 -228 -211v-70h-110v70c-82 1 -168 13 -226 34l20 139c48 -16 137 -25 206 -26v119c-121 10 -231 61 -231 204c0 154 103 208 231 210v60z
M396 248c-6 0 -12 0 -18 -1v-110c65 3 71 34 71 53c0 34 -20 57 -53 58zM247 431c7 -1 14 -2 21 -2v104c-53 -2 -71 -19 -71 -48c0 -28 19 -46 50 -54z" />
    <glyph glyph-name="ampersand" unicode="&#x26;" horiz-adv-x="831" 
d="M613 660l-35 -143c-30 16 -89 48 -134 48s-89 -16 -89 -67c0 -26 17 -54 30 -70l170 -197c16 22 27 63 30 94l169 -21c-4 -81 -61 -161 -100 -181l111 -123h-200l-37 41c-34 -26 -90 -51 -194 -51c-117 0 -279 35 -279 204c0 130 72 179 152 207c-21 29 -51 70 -51 135
c0 114 109 174 244 174c105 0 177 -32 213 -50zM334 111c34 0 76 9 103 31l-137 158c-27 -16 -47 -47 -47 -94c0 -59 29 -95 81 -95z" />
    <glyph glyph-name="quotesingle" unicode="'" horiz-adv-x="289" 
d="M62 700h165l-10 -230h-145z" />
    <glyph glyph-name="parenleft" unicode="(" horiz-adv-x="480" 
d="M69 325c0 196 81 363 148 479l178 -28c-68 -115 -132 -253 -132 -451c0 -207 73 -345 134 -449l-178 -28c-70 114 -150 279 -150 477z" />
    <glyph glyph-name="parenright" unicode=")" horiz-adv-x="480" 
d="M397 325c0 -198 -80 -363 -149 -477l-179 28c61 104 134 242 134 449c0 198 -63 336 -132 451l178 28c67 -116 148 -283 148 -479z" />
    <glyph glyph-name="asterisk" unicode="*" horiz-adv-x="728" 
d="M62 537l66 136l169 -100l-9 167h152l-9 -167l169 100l66 -136l-172 -67l172 -67l-66 -136l-169 100l9 -167h-152l9 166l-169 -99l-66 136l182 67z" />
    <glyph glyph-name="plus" unicode="+" 
d="M229 500h166v-167h167v-145h-167v-167h-166v167h-167v145h167v167z" />
    <glyph glyph-name="comma" unicode="," horiz-adv-x="310" 
d="M55 174h200v-106c0 -88 -61 -179 -119 -222l-63 35c28 32 47 71 47 119h-65v174z" />
    <glyph glyph-name="hyphen" unicode="-" horiz-adv-x="424" 
d="M62 247v145h300v-145h-300z" />
    <glyph glyph-name="period" unicode="." horiz-adv-x="310" 
d="M55 174h200v-174h-200v174z" />
    <glyph glyph-name="slash" unicode="/" horiz-adv-x="573" 
d="M546 707l-333 -740h-186l332 740h187z" />
    <glyph glyph-name="zero" unicode="0" horiz-adv-x="682" 
d="M29 290v113c0 207 124 307 312 307c189 0 312 -99 312 -307v-113c0 -205 -120 -300 -312 -300c-190 0 -312 93 -312 300zM341 561c-81 0 -111 -69 -111 -146v-130c0 -88 30 -146 111 -146s111 58 111 146v129c0 79 -30 147 -111 147z" />
    <glyph glyph-name="one" unicode="1" horiz-adv-x="682" 
d="M123 453l267 247h169v-700h-194v466l-195 -160z" />
    <glyph glyph-name="two" unicode="2" horiz-adv-x="682" 
d="M330 710c154 0 284 -42 284 -197c0 -151 -124 -198 -225 -237c-66 -31 -126 -44 -126 -137h357v-139h-558v46c0 208 57 263 181 322c62 29 175 66 175 121c0 39 -33 59 -100 59c-43 0 -137 -16 -215 -33l-31 155c61 17 158 40 258 40z" />
    <glyph glyph-name="three" unicode="3" horiz-adv-x="682" 
d="M61 22l24 148c46 -9 132 -22 203 -22c83 0 137 9 137 71s-46 72 -142 72h-78l-20 131h104c67 0 105 23 105 69c0 48 -37 61 -105 61c-57 0 -147 -6 -193 -19l-29 148c35 12 144 29 216 29c188 0 299 -33 299 -171c0 -92 -51 -133 -111 -153c84 -23 149 -65 149 -187
c0 -178 -145 -209 -346 -209c-74 0 -189 21 -213 32z" />
    <glyph glyph-name="four" unicode="4" horiz-adv-x="682" 
d="M339 700h221v-412h84l-23 -156h-61v-132h-194v132h-328v140zM366 521l-157 -232h157v232z" />
    <glyph glyph-name="five" unicode="5" horiz-adv-x="682" 
d="M55 25l24 134c46 -9 161 -25 238 -25c71 0 108 20 108 95c0 65 -51 68 -105 68c-64 0 -163 -9 -222 -16l32 419h472l-10 -155h-301l-10 -119c27 7 104 13 147 13c117 0 199 -46 199 -207c0 -205 -140 -242 -295 -242c-118 0 -244 23 -277 35z" />
    <glyph glyph-name="six" unicode="6" horiz-adv-x="682" 
d="M50 287v123c0 205 141 299 306 299c113 0 204 -22 258 -37l-32 -140c-49 18 -138 28 -204 28c-87 0 -132 -47 -132 -125v-28c45 22 99 32 164 32c145 0 221 -67 221 -222c0 -145 -90 -227 -278 -227c-180 0 -303 69 -303 297zM246 283v-46c0 -85 31 -112 96 -112
c54 0 94 32 94 91c0 66 -40 88 -87 88c-26 0 -77 -10 -103 -21z" />
    <glyph glyph-name="seven" unicode="7" horiz-adv-x="682" 
d="M398 0h-219c0 257 97 434 214 529h-338v171h571v-122c-91 -71 -228 -277 -228 -578z" />
    <glyph glyph-name="eight" unicode="8" horiz-adv-x="682" 
d="M193 382c-60 19 -134 58 -134 163c0 114 113 165 282 165s282 -51 282 -165c0 -103 -71 -142 -141 -164c96 -28 171 -87 171 -192c0 -151 -137 -199 -312 -199s-312 48 -312 199c0 109 75 165 164 193zM327 299c-50 -19 -96 -43 -96 -93c0 -59 45 -90 110 -90
c64 0 110 31 110 90c0 53 -72 76 -124 93zM341 596c-65 0 -101 -22 -101 -64c0 -53 75 -80 115 -93c29 16 87 47 87 93c0 43 -35 64 -101 64z" />
    <glyph glyph-name="nine" unicode="9" horiz-adv-x="682" 
d="M631 412v-123c0 -205 -141 -299 -306 -299c-113 0 -204 22 -258 37l32 140c49 -18 138 -28 204 -28c87 0 132 47 132 125v28c-45 -22 -99 -32 -164 -32c-145 0 -221 67 -221 222c0 145 90 227 278 227c180 0 303 -69 303 -297zM435 416v46c0 80 -31 112 -96 112
c-54 0 -94 -32 -94 -91c0 -66 39 -88 87 -88c26 0 77 10 103 21z" />
    <glyph glyph-name="colon" unicode=":" horiz-adv-x="310" 
d="M55 506h200v-174h-200v174zM55 174h200v-174h-200v174z" />
    <glyph glyph-name="semicolon" unicode=";" horiz-adv-x="310" 
d="M55 506h200v-174h-200v174zM55 174h200v-106c0 -88 -61 -179 -119 -222l-63 35c28 32 47 71 47 119h-65v174z" />
    <glyph glyph-name="less" unicode="&#x3c;" horiz-adv-x="655" 
d="M62 210v86c175 70 349 138 524 207v-140c-105 -36 -211 -72 -316 -107v-7c93 -29 223 -77 316 -106v-141c-175 69 -349 140 -524 208z" />
    <glyph glyph-name="equal" unicode="=" 
d="M62 303v131h500v-131h-500zM62 76v131h500v-131h-500z" />
    <glyph glyph-name="greater" unicode="&#x3e;" horiz-adv-x="655" 
d="M586 296v-86c-175 -68 -349 -139 -524 -208v141c93 29 223 77 316 106v7c-105 35 -211 71 -316 107v140c175 -69 349 -137 524 -207z" />
    <glyph glyph-name="question" unicode="?" horiz-adv-x="578" 
d="M78 544l-19 147c21 4 102 19 160 19c162 0 297 -23 297 -208c0 -119 -69 -148 -149 -179c-19 -7 -25 -23 -25 -57v-55h-166v82c0 67 22 98 78 122c40 17 68 34 68 87c0 54 -34 61 -103 61c-37 0 -108 -9 -141 -19zM159 174h200v-174h-200v174z" />
    <glyph glyph-name="at" unicode="@" horiz-adv-x="1149" 
d="M574 710c307 0 514 -84 514 -400c0 -228 -135 -310 -326 -310h-111v39c-22 -22 -82 -49 -131 -49c-103 0 -183 71 -183 244c0 186 101 263 245 263c70 0 142 -12 209 -23v-370c65 4 126 36 126 206c0 230 -89 280 -343 280c-199 0 -341 -92 -341 -350
c0 -279 142 -343 341 -343c154 0 323 31 434 68l25 -110c-125 -51 -291 -84 -459 -84c-313 0 -513 108 -513 469c0 342 200 470 513 470zM566 106c24 0 57 18 68 26v248c-13 3 -35 8 -63 8c-44 0 -88 -22 -89 -146c0 -116 45 -136 84 -136z" />
    <glyph glyph-name="A" unicode="A" horiz-adv-x="731" 
d="M503 0l-37 138h-199l-38 -138h-204l222 700h244l215 -700h-203zM371 520l-77 -254h146z" />
    <glyph glyph-name="B" unicode="B" horiz-adv-x="631" 
d="M62 0v700h317c107 0 190 -36 190 -175c0 -82 -38 -124 -83 -141c54 -17 109 -53 109 -177c0 -141 -54 -207 -207 -207h-326zM249 298v-170h90c47 0 75 32 75 86s-36 84 -75 84h-90zM330 572h-81v-146h81c30 0 58 27 58 78c0 39 -19 68 -58 68z" />
    <glyph glyph-name="C" unicode="C" horiz-adv-x="572" 
d="M510 177l26 -154c-21 -7 -117 -33 -186 -33c-176 0 -314 82 -314 290v140c0 207 139 290 314 290c69 0 165 -26 186 -33l-33 -154c-21 8 -110 27 -153 27c-80 0 -119 -56 -119 -133v-135c0 -71 32 -132 119 -132c43 0 139 19 160 27z" />
    <glyph glyph-name="D" unicode="D" horiz-adv-x="710" 
d="M62 0v700h262c245 0 350 -74 350 -350s-108 -350 -350 -350h-262zM324 562h-68v-424h68c101 0 155 41 155 212c0 179 -54 212 -155 212z" />
    <glyph glyph-name="E" unicode="E" horiz-adv-x="575" 
d="M256 283v-135h283v-148h-477v700h477v-148h-283v-124h229v-145h-229z" />
    <glyph glyph-name="F" unicode="F" horiz-adv-x="568" 
d="M256 253v-253h-194v700h477v-153h-283v-145h229v-149h-229z" />
    <glyph glyph-name="G" unicode="G" horiz-adv-x="651" 
d="M615 34c-76 -31 -153 -44 -248 -44c-192 0 -331 74 -331 281v153c0 208 139 286 331 286c82 0 162 -12 232 -32l-33 -148c-54 15 -120 27 -175 27c-114 0 -160 -47 -160 -140v-146c0 -94 46 -139 136 -139c31 0 47 4 83 13v121l-104 6v124h269v-362z" />
    <glyph glyph-name="H" unicode="H" horiz-adv-x="757" 
d="M501 700h194v-700h-194v293h-245v-293h-194v700h194v-258h245v258z" />
    <glyph glyph-name="I" unicode="I" horiz-adv-x="432" 
d="M20 551v149h385v-149h-96v-402h103v-149h-385v149h88v402h-95z" />
    <glyph glyph-name="J" unicode="J" horiz-adv-x="518" 
d="M191 -10c-77 0 -134 14 -174 29l23 153c24 -12 63 -26 109 -26c83 0 113 37 113 99v455h194v-473c0 -171 -86 -237 -265 -237z" />
    <glyph glyph-name="K" unicode="K" horiz-adv-x="685" 
d="M256 700v-299h15l174 299h223l-214 -322l220 -378h-216l-186 335h-16v-335h-194v700h194z" />
    <glyph glyph-name="L" unicode="L" horiz-adv-x="588" 
d="M62 0v700h194v-538h303v-162h-497z" />
    <glyph glyph-name="M" unicode="M" horiz-adv-x="966" 
d="M481 168h4l3 50l146 482h233l57 -700h-187l-19 455l1 55h-4l-5 -55l-140 -455h-173l-139 455l-4 55h-4l-2 -55l-22 -455h-184l57 700h233l146 -482z" />
    <glyph glyph-name="N" unicode="N" horiz-adv-x="760" 
d="M526 700h172v-700h-187l-278 404v-404h-171v700h192l272 -398v398z" />
    <glyph glyph-name="O" unicode="O" horiz-adv-x="738" 
d="M36 266v161c0 198 133 283 333 283s333 -85 333 -283v-161c0 -198 -133 -276 -333 -276s-333 78 -333 276zM238 410v-121c0 -89 34 -150 131 -150c100 0 131 61 131 150v121c0 85 -31 151 -131 151c-96 0 -131 -63 -131 -151z" />
    <glyph glyph-name="P" unicode="P" horiz-adv-x="659" 
d="M62 700h263c212 0 298 -66 298 -254s-86 -258 -298 -258h-69v-188h-194v700zM256 550v-213h69c59 0 102 18 102 110c0 83 -35 103 -102 103h-69z" />
    <glyph glyph-name="Q" unicode="Q" horiz-adv-x="738" 
d="M36 266v161c0 198 133 283 333 283s333 -85 333 -283v-161c0 -159 -86 -241 -224 -267l119 -146h-217l-76 140c-163 16 -268 97 -268 273zM238 410v-121c0 -89 34 -150 131 -150c100 0 131 61 131 150v121c0 85 -31 151 -131 151c-96 0 -131 -63 -131 -151z" />
    <glyph glyph-name="R" unicode="R" horiz-adv-x="680" 
d="M453 0l-123 230h-74v-230h-194v700h276c213 0 298 -60 298 -236c0 -124 -63 -204 -135 -216l167 -248h-215zM256 556v-182h89c65 0 95 24 95 90c0 65 -28 92 -95 92h-89z" />
    <glyph glyph-name="S" unicode="S" horiz-adv-x="644" 
d="M319 710c101 0 191 -13 265 -30l-20 -146c-78 19 -181 32 -233 32c-73 0 -99 -17 -99 -48c0 -28 21 -49 61 -62c178 -56 315 -54 315 -253c0 -161 -123 -213 -289 -213c-104 0 -207 17 -277 43l20 146c70 -19 191 -39 257 -39c82 0 95 30 95 48c0 40 -19 56 -71 71
c-171 51 -306 50 -306 245c0 151 112 206 282 206z" />
    <glyph glyph-name="T" unicode="T" horiz-adv-x="582" 
d="M16 528v172h550v-172h-178v-528h-194v528h-178z" />
    <glyph glyph-name="U" unicode="U" horiz-adv-x="697" 
d="M462 700h179v-450c0 -186 -115 -260 -284 -260c-195 0 -301 74 -301 260v450h201v-460c0 -73 33 -101 107 -101s98 28 98 101v460z" />
    <glyph glyph-name="V" unicode="V" horiz-adv-x="696" 
d="M214 0l-204 700h218l115 -536h16l118 536h209l-208 -700h-264z" />
    <glyph glyph-name="W" unicode="W" horiz-adv-x="998" 
d="M167 0l-157 700h192l79 -529l128 529h189l118 -527l79 527h193l-181 -700h-198l-111 530l-111 -530h-220z" />
    <glyph glyph-name="X" unicode="X" horiz-adv-x="717" 
d="M243 700l126 -262l115 262h223l-184 -339l184 -361h-234l-104 290l-137 -290h-222l206 362l-206 338h233z" />
    <glyph glyph-name="Y" unicode="Y" horiz-adv-x="675" 
d="M241 217l-231 483h212l113 -317l118 317h212l-230 -482v-218h-194v217z" />
    <glyph glyph-name="Z" unicode="Z" horiz-adv-x="614" 
d="M42 545v155h529v-139l-311 -406h325v-155h-556v139l317 406h-304z" />
    <glyph glyph-name="bracketleft" unicode="[" horiz-adv-x="462" 
d="M400 750v-151h-144v-638h144v-151h-338v940h338z" />
    <glyph glyph-name="backslash" unicode="\" horiz-adv-x="573" 
d="M565 -111h-186l-344 833h187z" />
    <glyph glyph-name="bracketright" unicode="]" horiz-adv-x="462" 
d="M206 599h-144v151h338v-940h-338v151h144v638z" />
    <glyph glyph-name="asciicircum" unicode="^" horiz-adv-x="718" 
d="M288 700h142l226 -429h-174l-120 258l-126 -258h-174z" />
    <glyph glyph-name="underscore" unicode="_" horiz-adv-x="500" 
d="M0 -179v152h500v-152h-500z" />
    <glyph glyph-name="grave" unicode="`" horiz-adv-x="301" 
d="M234 749l12 -181l-123 -17l-71 198h182z" />
    <glyph glyph-name="a" unicode="a" horiz-adv-x="569" 
d="M76 366l-19 113c38 9 116 31 212 31c161 0 251 -52 251 -189v-321h-180v33c-31 -22 -85 -43 -149 -43c-101 0 -157 45 -157 155c0 104 65 141 188 141h120v36c0 47 -18 67 -82 67c-53 0 -141 -14 -184 -23zM281 95c20 0 46 10 59 15v88h-67c-36 0 -58 -23 -58 -50
c0 -38 20 -53 66 -53z" />
    <glyph glyph-name="b" unicode="b" horiz-adv-x="595" 
d="M49 700h180v-233c36 21 79 42 140 42c136 0 199 -80 199 -259c0 -187 -61 -253 -199 -253c-61 0 -107 20 -140 36v-33h-180v700zM288 110c55 0 99 35 99 140c0 101 -44 133 -98 133c-21 0 -47 -10 -60 -15v-243c13 -6 34 -15 59 -15z" />
    <glyph glyph-name="c" unicode="c" horiz-adv-x="476" 
d="M439 143l24 -125c-54 -20 -133 -27 -168 -27c-145 0 -261 66 -261 221v74c0 139 115 225 261 225c65 0 116 -10 168 -31l-24 -125c-14 7 -75 25 -107 25c-71 0 -110 -24 -110 -108v-46c0 -84 38 -106 110 -106c41 0 62 9 107 23z" />
    <glyph glyph-name="d" unicode="d" horiz-adv-x="603" 
d="M374 700h180v-700h-180v33c-19 -10 -54 -43 -129 -43c-111 0 -210 64 -210 260c0 193 69 260 212 260c72 0 103 -24 127 -43v233zM312 117c26 0 46 9 62 15v236c-15 5 -37 15 -62 15c-58 0 -96 -21 -96 -133c0 -105 37 -133 96 -133z" />
    <glyph glyph-name="e" unicode="e" horiz-adv-x="570" 
d="M511 131l18 -117c-63 -13 -142 -24 -232 -24c-129 0 -263 39 -263 205v77c0 162 83 238 257 238c126 0 252 -40 252 -199v-112h-328v-17c0 -66 48 -74 82 -74c73 0 168 11 214 23zM215 314v-15h161v20c0 48 -32 82 -85 82s-76 -34 -76 -87z" />
    <glyph glyph-name="f" unicode="f" horiz-adv-x="436" 
d="M470 729l-23 -119c-29 7 -70 12 -97 12c-64 0 -71 -49 -71 -122h137v-128h-137v-372h-180v372h-79v128h79v26c0 156 67 224 193 224c79 0 150 -12 178 -21z" />
    <glyph glyph-name="g" unicode="g" horiz-adv-x="595" 
d="M298 510c48 0 66 -3 95 -10c4 11 5 20 5 33c0 5 0 10 -1 17h179c0 -49 -16 -93 -63 -111c24 -20 35 -50 35 -86c0 -134 -117 -156 -250 -156c-19 0 -45 1 -61 3c-3 -8 -6 -21 -6 -32c0 -10 4 -23 7 -32c15 2 41 3 60 3c160 0 272 -33 272 -170
c0 -135 -111 -170 -272 -170s-273 35 -273 170c0 72 30 114 76 140c-13 14 -23 36 -23 57c0 26 11 48 28 64c-34 22 -59 60 -59 123c0 133 120 157 251 157zM397 -31c0 45 -18 63 -99 63c-73 0 -99 -15 -99 -63c0 -40 17 -63 99 -63c81 0 99 20 99 63zM374 353
c0 41 -19 64 -76 64c-63 0 -77 -24 -77 -64c0 -44 14 -61 77 -62c60 0 76 17 76 62z" />
    <glyph glyph-name="h" unicode="h" 
d="M575 0h-180v312c0 49 -25 70 -78 70c-32 0 -68 -17 -88 -32v-350h-180v700h180v-235c28 17 79 45 167 45c98 0 179 -14 179 -165v-345z" />
    <glyph glyph-name="i" unicode="i" horiz-adv-x="278" 
d="M49 500h180v-500h-180v500zM49 700h180v-117h-180v117z" />
    <glyph glyph-name="j" unicode="j" horiz-adv-x="278" 
d="M-82 -180l13 102c10 -2 44 -8 59 -9c32 0 59 19 59 60v527h180v-526c0 -115 -60 -174 -189 -174c-59 0 -107 14 -122 20zM49 700h180v-117h-180v117z" />
    <glyph glyph-name="k" unicode="k" horiz-adv-x="574" 
d="M229 700v-412h8l123 212h209l-175 -230l177 -270h-204l-131 240h-7v-240h-180v700h180z" />
    <glyph glyph-name="l" unicode="l" horiz-adv-x="278" 
d="M229 0h-180v750h180v-750z" />
    <glyph glyph-name="m" unicode="m" horiz-adv-x="880" 
d="M530 0h-173v326c0 36 -19 54 -54 54c-22 0 -58 -16 -81 -36v-344h-173v500h173v-56c42 30 123 66 177 66c69 0 101 -17 119 -62c48 33 129 62 181 62c116 0 132 -49 132 -152v-358h-173v326c0 37 -17 54 -51 54c-19 0 -55 -14 -77 -30v-350z" />
    <glyph glyph-name="n" unicode="n" 
d="M575 0h-180v303c0 60 -25 79 -78 79c-35 0 -69 -16 -88 -30v-352h-180v500h180v-35c45 21 131 45 201 45c105 0 145 -60 145 -190v-320z" />
    <glyph glyph-name="o" unicode="o" horiz-adv-x="588" 
d="M27 205v89c0 141 92 215 263 215c172 0 270 -74 270 -215v-89c0 -141 -98 -216 -270 -216c-171 0 -263 75 -263 216zM201 301v-104c0 -60 20 -101 89 -101c70 0 89 42 89 101v104c0 59 -19 102 -89 102c-61 0 -89 -43 -89 -102z" />
    <glyph glyph-name="p" unicode="p" horiz-adv-x="602" 
d="M229 -200h-180v700h180v-33c25 16 74 47 149 47c118 0 190 -68 190 -264c0 -193 -70 -260 -190 -260c-75 0 -115 26 -149 43v-233zM284 383c-20 0 -42 -9 -55 -15v-236c17 -6 42 -14 70 -14c34 0 88 20 88 132c0 105 -44 133 -103 133z" />
    <glyph glyph-name="q" unicode="q" horiz-adv-x="602" 
d="M553 491v-691h-180v233c-32 -18 -79 -43 -136 -43c-141 0 -203 81 -203 260s62 260 235 260c122 0 207 -9 284 -19zM318 383c-58 0 -103 -28 -103 -133c0 -112 46 -133 103 -133c25 0 43 9 55 15v242c-13 5 -30 9 -55 9z" />
    <glyph glyph-name="r" unicode="r" horiz-adv-x="433" 
d="M404 510l16 -146h-71c-62 0 -120 -67 -120 -129v-235h-180v500h180v-58c25 33 72 68 133 68h42z" />
    <glyph glyph-name="s" unicode="s" horiz-adv-x="542" 
d="M283 510c81 0 153 -13 211 -28l-18 -106c-61 15 -131 25 -194 25c-58 0 -73 -16 -73 -40c0 -23 10 -26 38 -31c136 -22 267 -46 267 -185c0 -127 -82 -155 -232 -155c-88 0 -167 8 -252 26l14 107c69 -12 156 -26 218 -26c65 1 72 13 72 30c0 21 -11 26 -46 35
c-127 33 -259 39 -259 199c0 109 97 149 254 149z" />
    <glyph glyph-name="t" unicode="t" horiz-adv-x="408" 
d="M13 379v121h65v123l180 17v-140h130v-121h-130v-204c0 -41 16 -63 50 -63c32 0 49 3 83 9l20 -111c-28 -8 -84 -20 -150 -20c-127 0 -183 38 -183 152v237h-65z" />
    <glyph glyph-name="u" unicode="u" 
d="M49 500h180v-303c0 -60 29 -79 72 -79c39 0 74 15 94 29v353h180v-500h-180v35c-46 -19 -122 -45 -207 -45c-97 0 -139 63 -139 147v363z" />
    <glyph glyph-name="v" unicode="v" horiz-adv-x="586" 
d="M169 0l-159 500h196l85 -372h17l84 372h184l-158 -500h-249z" />
    <glyph glyph-name="w" unicode="w" horiz-adv-x="878" 
d="M143 0l-132 500h171l72 -372h7l96 372h165l101 -373h6l69 373h168l-132 -500h-211l-84 339l-85 -339h-211z" />
    <glyph glyph-name="x" unicode="x" horiz-adv-x="578" 
d="M204 500l85 -182l98 182h181l-157 -248l157 -252h-194l-85 191l-97 -191h-182l148 252l-148 248h194z" />
    <glyph glyph-name="y" unicode="y" horiz-adv-x="604" 
d="M250 -55l24 56c-39 0 -108 34 -129 95l-137 404h193l100 -396h11l96 396h186l-168 -529c-21 -45 -46 -94 -72 -126c-37 -46 -89 -80 -166 -80c-57 0 -130 18 -172 31l26 126c35 -11 100 -24 122 -24c36 0 65 5 86 47z" />
    <glyph glyph-name="z" unicode="z" horiz-adv-x="505" 
d="M36 369v131h426v-87l-219 -281h233v-132h-449v87l226 282h-217z" />
    <glyph glyph-name="braceleft" unicode="{" horiz-adv-x="499" 
d="M437 590h-66c-22 0 -36 -13 -36 -36v-168c0 -44 -50 -78 -75 -87c28 -15 76 -59 76 -114v-177c0 -24 14 -36 36 -36h65v-162h-78c-139 0 -217 50 -217 172v197c0 23 -14 36 -29 36h-51v161h50c16 0 30 12 30 36v165c0 127 83 173 217 173h78v-160z" />
    <glyph glyph-name="bar" unicode="|" horiz-adv-x="318" 
d="M62 750h194v-1001h-194v1001z" />
    <glyph glyph-name="braceright" unicode="}" horiz-adv-x="499" 
d="M127 590h-65v160h78c134 0 217 -46 217 -173v-165c0 -24 14 -36 30 -36h50v-161h-51c-15 0 -29 -13 -29 -36v-197c0 -122 -79 -172 -217 -172h-78v162h65c22 0 36 12 36 36v187c0 55 48 89 76 104c-25 9 -76 43 -76 87v168c0 23 -14 36 -36 36z" />
    <glyph glyph-name="asciitilde" unicode="~" horiz-adv-x="744" 
d="M133 283l-57 156c30 23 90 79 161 79c107 0 156 -54 254 -54c50 0 111 43 132 56l73 -154c-23 -22 -80 -93 -167 -93c-119 0 -166 54 -254 54c-52 0 -117 -30 -142 -44z" />
    <glyph glyph-name="sterling" unicode="&#xa3;" horiz-adv-x="885" 
d="M703 669l-35 -132c-1 1 -126 29 -203 29c-58 0 -103 -30 -103 -103v-38h243v-115h-243v-133c18 0 36 -2 54 -4c52 -9 94 -37 154 -37c64 0 150 44 165 51l60 -121c-24 -18 -100 -76 -225 -76c-115 0 -150 49 -265 49c-48 0 -132 -16 -188 -41l-41 124c23 12 55 26 92 38
v150h-57v115h57v56c0 159 131 229 297 229c117 0 228 -37 238 -41z" />
    <glyph glyph-name="section" unicode="&#xa7;" horiz-adv-x="760" 
d="M380 702c120 0 222 -18 299 -34l-34 -119c-70 15 -160 34 -265 34c-97 0 -123 -32 -123 -56c0 -39 87 -62 157 -76c113 -23 283 -53 283 -203c0 -66 -51 -108 -105 -135c68 -31 105 -75 105 -135c0 -127 -159 -178 -317 -178c-118 0 -241 20 -299 34l34 120
c78 -19 211 -35 265 -35c101 0 123 31 123 59c0 46 -96 62 -168 75c-102 19 -272 55 -272 202c0 61 56 105 106 133c-62 24 -106 76 -106 137c0 121 153 177 317 177zM257 255c0 -52 64 -68 138 -86c59 24 108 49 108 79c0 46 -46 68 -137 84c-56 -19 -109 -47 -109 -77z
" />
    <glyph glyph-name="dieresis" unicode="&#xa8;" horiz-adv-x="482" 
d="M52 721h159v-152h-159v152zM270 721h160v-152h-160v152z" />
    <glyph glyph-name="copyright" unicode="&#xa9;" horiz-adv-x="1034" 
d="M517 710c321 0 455 -188 455 -455s-134 -455 -455 -455s-455 188 -455 455s134 455 455 455zM822 256c0 234 -91 333 -305 333c-192 0 -305 -99 -305 -333c0 -254 132 -331 305 -331c201 0 305 77 305 331zM661 140l18 -112c-19 -7 -84 -23 -134 -23
c-132 0 -227 54 -227 209v80c0 153 95 212 227 212c50 0 115 -16 134 -22l-22 -114c-19 7 -80 19 -112 19c-65 0 -92 -32 -92 -96v-78c0 -59 22 -93 92 -93c32 0 98 12 116 18z" />
    <glyph glyph-name="guillemotleft" unicode="&#xab;" horiz-adv-x="613" 
d="M62 260l131 209h151l-112 -208l111 -209h-157zM283 260l131 209h151l-112 -208l111 -209h-157z" />
    <glyph glyph-name="registered" unicode="&#xae;" horiz-adv-x="621" 
d="M279 710c150 0 218 -85 218 -217c0 -133 -68 -217 -218 -217s-218 84 -218 217c0 132 68 217 218 217zM420 492c0 110 -42 155 -141 155c-88 0 -139 -45 -139 -155c0 -117 59 -152 139 -152c94 0 141 35 141 152zM318 387l-43 83h-20v-83h-56v216h83c63 0 90 -19 90 -71
c0 -39 -19 -58 -43 -60l53 -85h-64zM255 561v-58h29c19 0 31 5 31 29c0 23 -12 29 -31 29h-29z" />
    <glyph glyph-name="degree" unicode="&#xb0;" horiz-adv-x="576" 
d="M288 717c124 0 226 -102 226 -226s-102 -226 -226 -226s-226 102 -226 226s102 226 226 226zM377 491c0 50 -39 89 -89 89s-89 -39 -89 -89s39 -89 89 -89s89 39 89 89z" />
    <glyph glyph-name="plusminus" unicode="&#xb1;" 
d="M229 670h166v-167h167v-145h-167v-167h-166v167h-167v145h167v167zM62 0v145h500v-145h-500z" />
    <glyph glyph-name="acute" unicode="&#xb4;" horiz-adv-x="301" 
d="M52 566l12 184h182l-85 -201z" />
    <glyph glyph-name="paragraph" unicode="&#xb6;" horiz-adv-x="833" 
d="M740 700l31 -150h-93v-635l-152 -25v660h-101v-677l-152 -23v422h-15c-124 0 -196 74 -196 214s72 214 196 214h482z" />
    <glyph glyph-name="periodcentered" unicode="&#xb7;" horiz-adv-x="286" 
d="M62 250c0 45 22 82 80 82c59 0 82 -37 82 -82s-23 -80 -82 -80c-58 0 -80 35 -80 80z" />
    <glyph glyph-name="guillemotright" unicode="&#xbb;" horiz-adv-x="613" 
d="M395 261l-112 208h151l131 -209l-124 -208h-157zM174 261l-112 208h151l131 -209l-124 -208h-157z" />
    <glyph glyph-name="Agrave" unicode="&#xc0;" horiz-adv-x="748" 
d="M511 0l-37 138h-199l-38 -138h-204l222 700h244l215 -700h-203zM379 520l-77 -254h146zM459 949l12 -181l-123 -17l-71 198h182z" />
    <glyph glyph-name="Aacute" unicode="&#xc1;" horiz-adv-x="748" 
d="M511 0l-37 138h-199l-38 -138h-204l222 700h244l215 -700h-203zM379 520l-77 -254h146zM277 766l12 184h182l-85 -201z" />
    <glyph glyph-name="Acircumflex" unicode="&#xc2;" horiz-adv-x="748" 
d="M511 0l-37 138h-199l-38 -138h-204l222 700h244l215 -700h-203zM379 520l-77 -254h146zM292 935h156l100 -152h-138l-37 91l-36 -91h-138z" />
    <glyph glyph-name="Atilde" unicode="&#xc3;" horiz-adv-x="748" 
d="M511 0l-37 138h-199l-38 -138h-204l222 700h244l215 -700h-203zM379 520l-77 -254h146zM196 805l-32 87c31 25 78 58 138 58c68 0 90 -50 144 -50c42 0 67 22 94 41l43 -80c-23 -26 -75 -73 -137 -73c-72 0 -96 51 -144 51c-46 0 -78 -22 -106 -34z" />
    <glyph glyph-name="Adieresis" unicode="&#xc4;" horiz-adv-x="748" 
d="M511 0l-37 138h-199l-38 -138h-204l222 700h244l215 -700h-203zM379 520l-77 -254h146zM185 921h159v-152h-159v152zM403 921h160v-152h-160v152z" />
    <glyph glyph-name="Egrave" unicode="&#xc8;" horiz-adv-x="575" 
d="M256 283v-135h283v-148h-477v700h477v-148h-283v-124h229v-145h-229zM372 949l12 -181l-123 -17l-71 198h182z" />
    <glyph glyph-name="Eacute" unicode="&#xc9;" horiz-adv-x="575" 
d="M256 283v-135h283v-148h-477v700h477v-148h-283v-124h229v-145h-229zM190 766l12 184h182l-85 -201z" />
    <glyph glyph-name="Ecircumflex" unicode="&#xca;" horiz-adv-x="575" 
d="M256 283v-135h283v-148h-477v700h477v-148h-283v-124h229v-145h-229zM206 935h156l100 -152h-138l-37 91l-36 -91h-138z" />
    <glyph glyph-name="Edieresis" unicode="&#xcb;" horiz-adv-x="575" 
d="M256 283v-135h283v-148h-477v700h477v-148h-283v-124h229v-145h-229zM98 921h159v-152h-159v152zM316 921h160v-152h-160v152z" />
    <glyph glyph-name="Igrave" unicode="&#xcc;" horiz-adv-x="432" 
d="M20 551v149h385v-149h-96v-402h103v-149h-385v149h88v402h-95zM301 949l12 -181l-123 -17l-71 198h182z" />
    <glyph glyph-name="Iacute" unicode="&#xcd;" horiz-adv-x="432" 
d="M20 551v149h385v-149h-96v-402h103v-149h-385v149h88v402h-95zM119 766l12 184h182l-85 -201z" />
    <glyph glyph-name="Icircumflex" unicode="&#xce;" horiz-adv-x="432" 
d="M20 551v149h385v-149h-96v-402h103v-149h-385v149h88v402h-95zM135 935h156l100 -152h-138l-37 91l-36 -91h-138z" />
    <glyph glyph-name="Idieresis" unicode="&#xcf;" horiz-adv-x="432" 
d="M20 551v149h385v-149h-96v-402h103v-149h-385v149h88v402h-95zM27 921h159v-152h-159v152zM245 921h160v-152h-160v152z" />
    <glyph glyph-name="Ograve" unicode="&#xd2;" horiz-adv-x="738" 
d="M36 266v161c0 198 133 283 333 283s333 -85 333 -283v-161c0 -198 -133 -276 -333 -276s-333 78 -333 276zM238 410v-121c0 -89 34 -150 131 -150c100 0 131 61 131 150v121c0 85 -31 151 -131 151c-96 0 -131 -63 -131 -151zM454 949l12 -181l-123 -17l-71 198h182z" />
    <glyph glyph-name="Oacute" unicode="&#xd3;" horiz-adv-x="738" 
d="M36 266v161c0 198 133 283 333 283s333 -85 333 -283v-161c0 -198 -133 -276 -333 -276s-333 78 -333 276zM238 410v-121c0 -89 34 -150 131 -150c100 0 131 61 131 150v121c0 85 -31 151 -131 151c-96 0 -131 -63 -131 -151zM272 766l12 184h182l-85 -201z" />
    <glyph glyph-name="Ocircumflex" unicode="&#xd4;" horiz-adv-x="738" 
d="M36 266v161c0 198 133 283 333 283s333 -85 333 -283v-161c0 -198 -133 -276 -333 -276s-333 78 -333 276zM238 410v-121c0 -89 34 -150 131 -150c100 0 131 61 131 150v121c0 85 -31 151 -131 151c-96 0 -131 -63 -131 -151zM287 935h156l100 -152h-138l-37 91l-36 -91
h-138z" />
    <glyph glyph-name="Otilde" unicode="&#xd5;" horiz-adv-x="738" 
d="M36 266v161c0 198 133 283 333 283s333 -85 333 -283v-161c0 -198 -133 -276 -333 -276s-333 78 -333 276zM238 410v-121c0 -89 34 -150 131 -150c100 0 131 61 131 150v121c0 85 -31 151 -131 151c-96 0 -131 -63 -131 -151zM191 805l-32 87c31 25 78 58 138 58
c68 0 90 -50 144 -50c42 0 66 24 94 41l43 -80c-23 -26 -75 -73 -137 -73c-72 0 -96 51 -144 51c-46 0 -78 -22 -106 -34z" />
    <glyph glyph-name="Odieresis" unicode="&#xd6;" horiz-adv-x="738" 
d="M36 266v161c0 198 133 283 333 283s333 -85 333 -283v-161c0 -198 -133 -276 -333 -276s-333 78 -333 276zM238 410v-121c0 -89 34 -150 131 -150c100 0 131 61 131 150v121c0 85 -31 151 -131 151c-96 0 -131 -63 -131 -151zM180 921h159v-152h-159v152zM398 921h160
v-152h-160v152z" />
    <glyph glyph-name="Ugrave" unicode="&#xd9;" horiz-adv-x="697" 
d="M462 700h179v-450c0 -186 -115 -260 -284 -260c-195 0 -301 74 -301 260v450h201v-460c0 -73 33 -101 107 -101s98 28 98 101v460zM433 949l12 -181l-123 -17l-71 198h182z" />
    <glyph glyph-name="Uacute" unicode="&#xda;" horiz-adv-x="697" 
d="M462 700h179v-450c0 -186 -115 -260 -284 -260c-195 0 -301 74 -301 260v450h201v-460c0 -73 33 -101 107 -101s98 28 98 101v460zM251 766l12 184h182l-85 -201z" />
    <glyph glyph-name="Ucircumflex" unicode="&#xdb;" horiz-adv-x="697" 
d="M462 700h179v-450c0 -186 -115 -260 -284 -260c-195 0 -301 74 -301 260v450h201v-460c0 -73 33 -101 107 -101s98 28 98 101v460zM267 935h156l100 -152h-138l-37 91l-36 -91h-138z" />
    <glyph glyph-name="Udieresis" unicode="&#xdc;" horiz-adv-x="697" 
d="M462 700h179v-450c0 -186 -115 -260 -284 -260c-195 0 -301 74 -301 260v450h201v-460c0 -73 33 -101 107 -101s98 28 98 101v460zM159 921h159v-152h-159v152zM377 921h160v-152h-160v152z" />
    <glyph glyph-name="agrave" unicode="&#xe0;" horiz-adv-x="569" 
d="M349 749l12 -181l-123 -17l-71 198h182zM76 366l-19 113c38 9 116 31 212 31c161 0 251 -52 251 -189v-321h-180v33c-31 -22 -85 -43 -149 -43c-101 0 -157 45 -157 155c0 104 65 141 188 141h120v36c0 47 -18 67 -82 67c-53 0 -141 -14 -184 -23zM281 95
c20 0 46 10 59 15v88h-67c-36 0 -58 -23 -58 -50c0 -38 20 -53 66 -53z" />
    <glyph glyph-name="aacute" unicode="&#xe1;" horiz-adv-x="569" 
d="M227 566l12 184h182l-85 -201zM76 366l-19 113c38 9 116 31 212 31c161 0 251 -52 251 -189v-321h-180v33c-31 -22 -85 -43 -149 -43c-101 0 -157 45 -157 155c0 104 65 141 188 141h120v36c0 47 -18 67 -82 67c-53 0 -141 -14 -184 -23zM281 95c20 0 46 10 59 15v88h-67
c-36 0 -58 -23 -58 -50c0 -38 20 -53 66 -53z" />
    <glyph glyph-name="acircumflex" unicode="&#xe2;" horiz-adv-x="569" 
d="M203 735h156l100 -152h-138l-37 91l-36 -91h-138zM76 366l-19 113c38 9 116 31 212 31c161 0 251 -52 251 -189v-321h-180v33c-31 -22 -85 -43 -149 -43c-101 0 -157 45 -157 155c0 104 65 141 188 141h120v36c0 47 -18 67 -82 67c-53 0 -141 -14 -184 -23zM281 95
c20 0 46 10 59 15v88h-67c-36 0 -58 -23 -58 -50c0 -38 20 -53 66 -53z" />
    <glyph glyph-name="atilde" unicode="&#xe3;" horiz-adv-x="569" 
d="M107 605l-32 87c31 25 78 58 138 58c68 0 90 -50 144 -50c42 0 66 24 94 41l43 -80c-23 -26 -75 -73 -137 -73c-72 0 -96 51 -144 51c-46 0 -78 -22 -106 -34zM76 366l-19 113c38 9 116 31 212 31c161 0 251 -52 251 -189v-321h-180v33c-31 -22 -85 -43 -149 -43
c-101 0 -157 45 -157 155c0 104 65 141 188 141h120v36c0 47 -18 67 -82 67c-53 0 -141 -14 -184 -23zM281 95c20 0 46 10 59 15v88h-67c-36 0 -58 -23 -58 -50c0 -38 20 -53 66 -53z" />
    <glyph glyph-name="adieresis" unicode="&#xe4;" horiz-adv-x="569" 
d="M95 721h159v-152h-159v152zM313 721h160v-152h-160v152zM76 366l-19 113c38 9 116 31 212 31c161 0 251 -52 251 -189v-321h-180v33c-31 -22 -85 -43 -149 -43c-101 0 -157 45 -157 155c0 104 65 141 188 141h120v36c0 47 -18 67 -82 67c-53 0 -141 -14 -184 -23zM281 95
c20 0 46 10 59 15v88h-67c-36 0 -58 -23 -58 -50c0 -38 20 -53 66 -53z" />
    <glyph glyph-name="egrave" unicode="&#xe8;" horiz-adv-x="570" 
d="M370 749l12 -181l-123 -17l-71 198h182zM511 131l18 -117c-63 -13 -142 -24 -232 -24c-129 0 -263 39 -263 205v77c0 162 83 238 257 238c126 0 252 -40 252 -199v-112h-328v-17c0 -66 48 -74 82 -74c73 0 168 11 214 23zM215 314v-15h161v20c0 48 -32 82 -85 82
s-76 -34 -76 -87z" />
    <glyph glyph-name="eacute" unicode="&#xe9;" horiz-adv-x="570" 
d="M228 566l12 184h182l-85 -201zM511 131l18 -117c-63 -13 -142 -24 -232 -24c-129 0 -263 39 -263 205v77c0 162 83 238 257 238c126 0 252 -40 252 -199v-112h-328v-17c0 -66 48 -74 82 -74c73 0 168 11 214 23zM215 314v-15h161v20c0 48 -32 82 -85 82s-76 -34 -76 -87z
" />
    <glyph glyph-name="ecircumflex" unicode="&#xea;" horiz-adv-x="570" 
d="M213 735h156l100 -152h-138l-37 91l-36 -91h-138zM511 131l18 -117c-63 -13 -142 -24 -232 -24c-129 0 -263 39 -263 205v77c0 162 83 238 257 238c126 0 252 -40 252 -199v-112h-328v-17c0 -66 48 -74 82 -74c73 0 168 11 214 23zM215 314v-15h161v20
c0 48 -32 82 -85 82s-76 -34 -76 -87z" />
    <glyph glyph-name="edieresis" unicode="&#xeb;" horiz-adv-x="570" 
d="M106 721h159v-152h-159v152zM324 721h160v-152h-160v152zM511 131l18 -117c-63 -13 -142 -24 -232 -24c-129 0 -263 39 -263 205v77c0 162 83 238 257 238c126 0 252 -40 252 -199v-112h-328v-17c0 -66 48 -74 82 -74c73 0 168 11 214 23zM215 314v-15h161v20
c0 48 -32 82 -85 82s-76 -34 -76 -87z" />
    <glyph glyph-name="igrave" unicode="&#xec;" horiz-adv-x="278" 
d="M49 500h180v-500h-180v500zM224 749l12 -181l-123 -17l-71 198h182z" />
    <glyph glyph-name="iacute" unicode="&#xed;" horiz-adv-x="278" 
d="M49 500h180v-500h-180v500zM42 566l12 184h182l-85 -201z" />
    <glyph glyph-name="icircumflex" unicode="&#xee;" horiz-adv-x="278" 
d="M49 500h180v-500h-180v500zM58 735h156l100 -152h-138l-37 91l-36 -91h-138z" />
    <glyph glyph-name="idieresis" unicode="&#xef;" horiz-adv-x="278" 
d="M49 500h180v-500h-180v500zM-50 721h159v-152h-159v152zM168 721h160v-152h-160v152z" />
    <glyph glyph-name="ograve" unicode="&#xf2;" horiz-adv-x="588" 
d="M27 205v89c0 141 92 215 263 215c172 0 270 -74 270 -215v-89c0 -141 -98 -216 -270 -216c-171 0 -263 75 -263 216zM201 301v-104c0 -60 20 -101 89 -101c70 0 89 42 89 101v104c0 59 -19 102 -89 102c-61 0 -89 -43 -89 -102zM379 749l12 -181l-123 -17l-71 198h182z
" />
    <glyph glyph-name="oacute" unicode="&#xf3;" horiz-adv-x="588" 
d="M27 205v89c0 141 92 215 263 215c172 0 270 -74 270 -215v-89c0 -141 -98 -216 -270 -216c-171 0 -263 75 -263 216zM201 301v-104c0 -60 20 -101 89 -101c70 0 89 42 89 101v104c0 59 -19 102 -89 102c-61 0 -89 -43 -89 -102zM197 566l12 184h182l-85 -201z" />
    <glyph glyph-name="ocircumflex" unicode="&#xf4;" horiz-adv-x="588" 
d="M27 205v89c0 141 92 215 263 215c172 0 270 -74 270 -215v-89c0 -141 -98 -216 -270 -216c-171 0 -263 75 -263 216zM201 301v-104c0 -60 20 -101 89 -101c70 0 89 42 89 101v104c0 59 -19 102 -89 102c-61 0 -89 -43 -89 -102zM212 735h156l100 -152h-138l-37 91
l-36 -91h-138z" />
    <glyph glyph-name="otilde" unicode="&#xf5;" horiz-adv-x="588" 
d="M27 205v89c0 141 92 215 263 215c172 0 270 -74 270 -215v-89c0 -141 -98 -216 -270 -216c-171 0 -263 75 -263 216zM201 301v-104c0 -60 20 -101 89 -101c70 0 89 42 89 101v104c0 59 -19 102 -89 102c-61 0 -89 -43 -89 -102zM116 605l-32 87c31 25 78 58 138 58
c68 0 90 -50 144 -50c42 0 66 24 94 41l43 -80c-23 -26 -75 -73 -137 -73c-72 0 -96 51 -144 51c-46 0 -78 -22 -106 -34z" />
    <glyph glyph-name="odieresis" unicode="&#xf6;" horiz-adv-x="588" 
d="M27 205v89c0 141 92 215 263 215c172 0 270 -74 270 -215v-89c0 -141 -98 -216 -270 -216c-171 0 -263 75 -263 216zM201 301v-104c0 -60 20 -101 89 -101c70 0 89 42 89 101v104c0 59 -19 102 -89 102c-61 0 -89 -43 -89 -102zM105 721h159v-152h-159v152zM323 721h160
v-152h-160v152z" />
    <glyph glyph-name="ugrave" unicode="&#xf9;" 
d="M49 500h180v-303c0 -60 29 -79 72 -79c39 0 74 15 94 29v353h180v-500h-180v35c-46 -19 -122 -45 -207 -45c-97 0 -139 63 -139 147v363zM397 749l12 -181l-123 -17l-71 198h182z" />
    <glyph glyph-name="uacute" unicode="&#xfa;" 
d="M49 500h180v-303c0 -60 29 -79 72 -79c39 0 74 15 94 29v353h180v-500h-180v35c-46 -19 -122 -45 -207 -45c-97 0 -139 63 -139 147v363zM235 566l12 184h182l-85 -201z" />
    <glyph glyph-name="ucircumflex" unicode="&#xfb;" 
d="M49 500h180v-303c0 -60 29 -79 72 -79c39 0 74 15 94 29v353h180v-500h-180v35c-46 -19 -122 -45 -207 -45c-97 0 -139 63 -139 147v363zM230 735h156l100 -152h-138l-37 91l-36 -91h-138z" />
    <glyph glyph-name="udieresis" unicode="&#xfc;" 
d="M49 500h180v-303c0 -60 29 -79 72 -79c39 0 74 15 94 29v353h180v-500h-180v35c-46 -19 -122 -45 -207 -45c-97 0 -139 63 -139 147v363zM123 721h159v-152h-159v152zM341 721h160v-152h-160v152z" />
    <glyph glyph-name="circumflex" unicode="&#x2c6;" horiz-adv-x="494" 
d="M169 735h156l100 -152h-138l-37 91l-36 -91h-138z" />
    <glyph glyph-name="tilde" unicode="&#x2dc;" horiz-adv-x="541" 
d="M98 605l-32 87c31 25 78 58 138 58c68 0 90 -50 144 -50c42 0 66 24 94 41l43 -80c-23 -26 -75 -73 -137 -73c-72 0 -96 51 -144 51c-46 0 -78 -22 -106 -34z" />
    <glyph glyph-name="afii10023" unicode="&#x401;" horiz-adv-x="589" 
d="M114 921h159v-152h-159v152zM333 921h159v-152h-159v152zM256 283v-135h283v-148h-477v700h477v-148h-283v-124h229v-145h-229z" />
    <glyph glyph-name="afii10017" unicode="&#x410;" horiz-adv-x="748" 
d="M511 0l-37 138h-199l-38 -138h-204l222 700h244l215 -700h-203zM379 520l-77 -254h146z" />
    <glyph glyph-name="afii10018" unicode="&#x411;" horiz-adv-x="652" 
d="M256 551v-118h148c149 0 205 -72 205 -216c0 -136 -50 -217 -207 -217h-340v700h493v-149h-299zM346 300h-90v-166h90c47 0 75 26 75 83s-28 83 -75 83z" />
    <glyph glyph-name="afii10019" unicode="&#x412;" horiz-adv-x="631" 
d="M62 0v700h317c107 0 190 -36 190 -175c0 -82 -38 -124 -83 -141c54 -17 109 -53 109 -177c0 -141 -54 -207 -207 -207h-326zM249 298v-170h90c47 0 75 32 75 86s-36 84 -75 84h-90zM330 572h-81v-146h81c30 0 58 27 58 78c0 39 -19 68 -58 68z" />
    <glyph glyph-name="afii10020" unicode="&#x413;" horiz-adv-x="547" 
d="M256 0h-194v700h465v-171h-271v-529z" />
    <glyph glyph-name="afii10021" unicode="&#x414;" horiz-adv-x="802" 
d="M166 700h520v-551h80l-16 -349h-178v200h-358l-10 -200h-184v349h68c78 125 78 416 78 551zM492 537h-146c-5 -118 -11 -289 -71 -388h217v388z" />
    <glyph glyph-name="afii10022" unicode="&#x415;" horiz-adv-x="575" 
d="M256 283v-135h283v-148h-477v700h477v-148h-283v-124h229v-145h-229z" />
    <glyph glyph-name="afii10024" unicode="&#x416;" horiz-adv-x="949" 
d="M193 376l-176 324h206l138 -298h17v298h194v-298h16l138 298h206l-176 -324l174 -376h-199l-144 348h-15v-348h-194v348h-17l-144 -348h-199z" />
    <glyph glyph-name="afii10025" unicode="&#x417;" horiz-adv-x="609" 
d="M36 25l23 141c46 -9 112 -32 183 -32c83 0 129 16 129 78c0 76 -62 89 -162 89h-76v121h110c68 0 96 27 96 73c0 48 -27 71 -96 71c-56 0 -126 -17 -172 -29l-26 141c35 13 111 32 207 32c187 0 275 -36 275 -174c0 -92 -40 -131 -99 -150c84 -24 138 -65 138 -187
c0 -178 -122 -209 -324 -209c-93 0 -182 24 -206 35z" />
    <glyph glyph-name="afii10026" unicode="&#x418;" horiz-adv-x="755" 
d="M62 700h194v-412l281 412h156v-700h-194v412l-281 -412h-156v700z" />
    <glyph glyph-name="afii10027" unicode="&#x419;" horiz-adv-x="755" 
d="M150 894h138c0 -27 12 -59 92 -59c79 0 95 31 95 59h137v-24c0 -112 -126 -124 -232 -124c-104 0 -230 12 -230 124v24zM62 700h194v-412l281 412h156v-700h-194v412l-281 -412h-156v700z" />
    <glyph glyph-name="afii10028" unicode="&#x41a;" horiz-adv-x="685" 
d="M256 700v-299h15l174 299h223l-214 -322l220 -378h-216l-186 335h-16v-335h-194v700h194z" />
    <glyph glyph-name="afii10029" unicode="&#x41b;" horiz-adv-x="758" 
d="M165 700h531v-700h-194v530h-162c-9 -341 -51 -540 -235 -540c-23 0 -48 3 -68 8l-24 154c1 0 4 -1 9 -1c153 0 138 296 143 549z" />
    <glyph glyph-name="afii10030" unicode="&#x41c;" horiz-adv-x="966" 
d="M480 168h4l4 50l146 482h233l57 -700h-187l-18 454v56h-4l-5 -55l-140 -455h-173l-140 455l-4 55h-4v-55l-20 -455h-187l57 700h233l146 -482z" />
    <glyph glyph-name="afii10031" unicode="&#x41d;" horiz-adv-x="757" 
d="M501 700h194v-700h-194v293h-245v-293h-194v700h194v-258h245v258z" />
    <glyph glyph-name="afii10032" unicode="&#x41e;" horiz-adv-x="738" 
d="M36 266v161c0 198 133 283 333 283s333 -85 333 -283v-161c0 -198 -133 -276 -333 -276s-333 78 -333 276zM238 410v-121c0 -89 34 -150 131 -150c100 0 131 61 131 150v121c0 85 -31 151 -131 151c-96 0 -131 -63 -131 -151z" />
    <glyph glyph-name="afii10033" unicode="&#x41f;" horiz-adv-x="763" 
d="M256 0h-194v700h639v-700h-194v537h-251v-537z" />
    <glyph glyph-name="afii10034" unicode="&#x420;" horiz-adv-x="659" 
d="M62 700h263c212 0 298 -66 298 -254s-86 -258 -298 -258h-69v-188h-194v700zM256 550v-213h69c59 0 102 18 102 110c0 83 -35 103 -102 103h-69z" />
    <glyph glyph-name="afii10035" unicode="&#x421;" horiz-adv-x="572" 
d="M510 177l26 -154c-21 -7 -117 -33 -186 -33c-176 0 -314 82 -314 290v140c0 207 139 290 314 290c69 0 165 -26 186 -33l-33 -154c-21 8 -110 27 -153 27c-80 0 -119 -56 -119 -133v-135c0 -71 32 -132 119 -132c43 0 139 19 160 27z" />
    <glyph glyph-name="afii10036" unicode="&#x422;" horiz-adv-x="582" 
d="M16 528v172h550v-172h-178v-528h-194v528h-178z" />
    <glyph glyph-name="afii10037" unicode="&#x423;" horiz-adv-x="678" 
d="M300 189c-29 1 -102 21 -136 94l-154 417h225l123 -398h5l105 398h200l-179 -542c-54 -132 -167 -168 -253 -168c-64 0 -148 11 -201 26l33 139c40 -13 77 -22 121 -22c49 0 94 10 111 56z" />
    <glyph glyph-name="afii10038" unicode="&#x424;" horiz-adv-x="936" 
d="M371 737h194v-69h31c207 0 304 -80 304 -272v-53c0 -189 -97 -271 -304 -271h-31v-72h-194v72h-31c-208 0 -304 82 -304 271v53c0 192 96 272 304 272h31v69zM596 532h-31v-324h31c79 0 109 37 109 132v59c0 90 -27 133 -109 133zM231 340c0 -95 29 -132 109 -132h31v324
h-31c-82 0 -109 -43 -109 -133v-59z" />
    <glyph glyph-name="afii10039" unicode="&#x425;" horiz-adv-x="717" 
d="M243 700l126 -262l115 262h223l-184 -339l184 -361h-234l-104 290l-137 -290h-222l206 362l-206 338h233z" />
    <glyph glyph-name="afii10040" unicode="&#x426;" horiz-adv-x="790" 
d="M62 700h194v-551h224v551h194v-551h81l-11 -299h-184v150h-498v700z" />
    <glyph glyph-name="afii10041" unicode="&#x427;" horiz-adv-x="678" 
d="M42 700h194v-260c0 -58 28 -77 79 -77c33 0 71 2 107 5v332h194v-700h-194v212c-43 -4 -82 -6 -120 -6c-77 0 -260 16 -260 220v274z" />
    <glyph glyph-name="afii10042" unicode="&#x428;" horiz-adv-x="978" 
d="M392 700h194v-551h136v551h194v-700h-854v700h194v-551h136v551z" />
    <glyph glyph-name="afii10043" unicode="&#x429;" horiz-adv-x="1032" 
d="M392 700h194v-551h136v551h194v-551h80l-11 -299h-183v150h-740v700h194v-551h136v551z" />
    <glyph glyph-name="afii10044" unicode="&#x42a;" horiz-adv-x="737" 
d="M140 0v560h-127l15 140h306v-253c38 4 77 9 122 9c176 0 245 -81 245 -229c0 -161 -82 -227 -298 -227h-263zM403 325c-23 0 -45 -1 -69 -4v-193h69c67 0 103 19 103 98s-38 99 -103 99z" />
    <glyph glyph-name="afii10045" unicode="&#x42b;" horiz-adv-x="954" 
d="M698 0v700h194v-700h-194zM325 0c215 0 298 66 298 227c0 148 -69 229 -245 229c-40 0 -81 -3 -122 -9v253h-194v-700h263zM325 325c65 0 102 -20 102 -99s-35 -98 -102 -98h-69v193c24 3 46 4 69 4z" />
    <glyph glyph-name="afii10046" unicode="&#x42c;" horiz-adv-x="659" 
d="M325 0h-263v700h194v-253s68 9 122 9c176 0 245 -81 245 -229c0 -161 -83 -227 -298 -227zM325 325c-23 0 -45 -1 -69 -4v-193h69c67 0 102 19 102 98s-37 99 -102 99z" />
    <glyph glyph-name="afii10047" unicode="&#x42d;" horiz-adv-x="600" 
d="M368 279v20h-251v121h251v16c0 88 -45 125 -115 125c-45 0 -155 -17 -198 -34l-32 150c14 6 124 33 227 33c168 0 314 -76 314 -290v-140c0 -208 -145 -290 -314 -290c-95 0 -209 26 -227 33l32 150c45 -13 138 -27 195 -27c86 0 118 56 118 133z" />
    <glyph glyph-name="afii10048" unicode="&#x42e;" horiz-adv-x="967" 
d="M346 221v69h-90v-290h-194v700h194v-282h90v52c0 162 121 240 292 240c172 0 293 -78 293 -275v-186c0 -197 -121 -259 -293 -259c-171 0 -292 62 -292 231zM534 461v-220c0 -69 39 -109 104 -109c66 0 105 40 105 109v220c0 68 -41 107 -105 107
c-62 0 -104 -39 -104 -107z" />
    <glyph glyph-name="afii10049" unicode="&#x42f;" horiz-adv-x="720" 
d="M348 700h310v-700h-194v215h-66l-122 -215h-213l150 236c-110 22 -162 108 -162 226c0 131 80 238 297 238zM348 350h116v193h-116c-67 0 -102 -28 -102 -96s38 -97 102 -97z" />
    <glyph glyph-name="afii10065" unicode="&#x430;" horiz-adv-x="569" 
d="M76 366l-19 113c38 9 116 31 212 31c161 0 251 -52 251 -189v-321h-180v33c-31 -22 -85 -43 -149 -43c-101 0 -157 45 -157 155c0 104 65 141 188 141h120v36c0 47 -18 67 -82 67c-53 0 -141 -14 -184 -23zM281 95c20 0 46 10 59 15v88h-67c-36 0 -58 -23 -58 -50
c0 -38 20 -53 66 -53z" />
    <glyph glyph-name="afii10066" unicode="&#x431;" horiz-adv-x="616" 
d="M39 251v168c0 182 115 253 235 278l147 30c42 9 83 23 116 37l46 -145c-23 -14 -74 -35 -135 -40l-135 -12c-80 -7 -111 -75 -111 -132v-58c17 42 75 94 182 94c108 0 195 -40 195 -203v-56c0 -154 -95 -223 -270 -223s-270 68 -270 262zM309 113c57 0 89 34 89 103v42
c0 67 -32 91 -89 91c-61 0 -89 -35 -89 -100v-33c0 -70 28 -103 89 -103z" />
    <glyph glyph-name="afii10067" unicode="&#x432;" horiz-adv-x="569" 
d="M49 0v500h307c112 0 153 -34 153 -123c0 -61 -45 -85 -85 -96c56 -6 118 -21 118 -124c0 -120 -58 -157 -219 -157h-274zM298 215h-83v-108h87c47 0 73 12 73 57c0 37 -25 51 -77 51zM215 303h78c32 0 49 15 49 48c0 27 -17 43 -49 43h-78v-91z" />
    <glyph glyph-name="afii10068" unicode="&#x433;" horiz-adv-x="450" 
d="M229 0h-180v500h388v-137h-208v-363z" />
    <glyph glyph-name="afii10069" unicode="&#x434;" horiz-adv-x="689" 
d="M140 500h454v-379h59l-10 -281h-156v160h-301l-9 -160h-157v281h49c69 73 71 274 71 379zM414 393h-111c0 -93 -7 -187 -51 -272h162v272z" />
    <glyph glyph-name="afii10070" unicode="&#x435;" horiz-adv-x="570" 
d="M511 131l18 -117c-63 -13 -142 -24 -232 -24c-129 0 -263 39 -263 205v77c0 162 83 238 257 238c126 0 252 -40 252 -199v-112h-328v-17c0 -66 48 -74 82 -74c73 0 168 11 214 23zM215 314v-15h161v20c0 48 -32 82 -85 82s-76 -34 -76 -87z" />
    <glyph glyph-name="afii10072" unicode="&#x436;" horiz-adv-x="824" 
d="M10 500h184l119 -221h13v221h173v-221h13l114 221h188l-143 -241l141 -259h-185l-115 242h-13v-242h-173v240h-12l-122 -240h-181l150 259z" />
    <glyph glyph-name="afii10073" unicode="&#x437;" horiz-adv-x="539" 
d="M34 20l21 108c11 -3 71 -18 130 -18c92 0 138 6 138 52c0 38 -31 45 -83 45h-144v98h126c28 0 70 7 70 50c0 33 -39 38 -107 38c-49 0 -89 -9 -127 -19l-21 109c36 11 117 26 212 26c132 0 225 -23 225 -119c0 -57 -41 -85 -86 -97c58 -13 123 -35 123 -134
c0 -130 -116 -168 -296 -168c-86 0 -158 20 -181 29z" />
    <glyph glyph-name="afii10074" unicode="&#x438;" horiz-adv-x="641" 
d="M49 500h180v-282l206 282h157v-500h-180v281l-205 -281h-158v500z" />
    <glyph glyph-name="afii10075" unicode="&#x439;" horiz-adv-x="641" 
d="M85 735h138c0 -28 7 -62 98 -62c80 0 98 34 98 62h138v-20c0 -116 -127 -142 -236 -142s-236 26 -236 142v20zM49 500h180v-282l206 282h157v-500h-180v281l-205 -281h-158v500z" />
    <glyph glyph-name="afii10076" unicode="&#x43a;" horiz-adv-x="581" 
d="M229 500v-216h8l133 216h206l-179 -231l181 -269h-201l-141 237h-7v-237h-180v500h180z" />
    <glyph glyph-name="afii10077" unicode="&#x43b;" horiz-adv-x="647" 
d="M143 500h455v-500h-180v386h-120c0 -191 -9 -395 -193 -395c-14 0 -56 4 -76 9l-16 124c17 0 27 -1 43 -1c61 0 87 121 87 377z" />
    <glyph glyph-name="afii10078" unicode="&#x43c;" horiz-adv-x="827" 
d="M211 340l-9 -340h-160l41 500h208l122 -348l122 348h209l41 -500h-161l-9 340l-136 -340h-144z" />
    <glyph glyph-name="afii10079" unicode="&#x43d;" horiz-adv-x="638" 
d="M409 500h180v-500h-180v195h-180v-195h-180v500h180v-185h180v185z" />
    <glyph glyph-name="afii10080" unicode="&#x43e;" horiz-adv-x="588" 
d="M27 205v89c0 141 92 215 263 215c172 0 270 -74 270 -215v-89c0 -141 -98 -216 -270 -216c-171 0 -263 75 -263 216zM201 301v-104c0 -60 20 -101 89 -101c70 0 89 42 89 101v104c0 59 -19 102 -89 102c-61 0 -89 -43 -89 -102z" />
    <glyph glyph-name="afii10081" unicode="&#x43f;" horiz-adv-x="635" 
d="M229 0h-180v500h537v-500h-180v379h-177v-379z" />
    <glyph glyph-name="afii10082" unicode="&#x440;" horiz-adv-x="602" 
d="M229 -200h-180v700h180v-33c25 16 74 47 149 47c118 0 190 -68 190 -264c0 -193 -70 -260 -190 -260c-75 0 -115 26 -149 43v-233zM284 383c-20 0 -42 -9 -55 -15v-236c17 -6 42 -14 70 -14c34 0 88 20 88 132c0 105 -44 133 -103 133z" />
    <glyph glyph-name="afii10083" unicode="&#x441;" horiz-adv-x="476" 
d="M439 143l24 -125c-54 -20 -133 -27 -168 -27c-145 0 -261 66 -261 221v74c0 139 115 225 261 225c65 0 116 -10 168 -31l-24 -125c-14 7 -75 25 -107 25c-71 0 -110 -24 -110 -108v-46c0 -84 38 -106 110 -106c41 0 62 9 107 23z" />
    <glyph glyph-name="afii10084" unicode="&#x442;" horiz-adv-x="538" 
d="M20 363v137h498v-137h-158v-363h-180v363h-160z" />
    <glyph glyph-name="afii10085" unicode="&#x443;" horiz-adv-x="604" 
d="M250 -55l24 56c-39 0 -108 34 -129 95l-137 404h193l100 -396h11l96 396h186l-168 -529c-21 -45 -46 -94 -72 -126c-37 -46 -89 -80 -166 -80c-57 0 -130 18 -172 31l26 126c35 -11 100 -24 122 -24c36 0 65 5 86 47z" />
    <glyph glyph-name="afii10086" unicode="&#x444;" horiz-adv-x="879" 
d="M349 700h180v-211c19 9 75 21 104 21c154 0 218 -100 218 -257c0 -163 -64 -263 -218 -263c-29 0 -85 11 -104 21v-211h-180v211c-19 -10 -74 -21 -104 -21c-153 0 -218 97 -218 263c0 156 65 257 218 257c31 0 86 -12 104 -21v211zM316 103c17 0 24 5 33 8v277
c-12 4 -18 8 -33 8c-72 0 -108 -54 -108 -143c0 -110 50 -149 108 -150zM561 396c-16 0 -25 -5 -32 -8v-277c8 -3 19 -8 32 -8c69 0 109 49 109 150c0 100 -43 143 -109 143z" />
    <glyph glyph-name="afii10087" unicode="&#x445;" horiz-adv-x="577" 
d="M204 500l85 -182l98 182h181l-157 -248l157 -252h-194l-85 191l-97 -191h-182l148 252l-148 248h194z" />
    <glyph glyph-name="afii10088" unicode="&#x446;" horiz-adv-x="662" 
d="M49 500h180v-379h160v379h180v-379h60l-12 -281h-168v160h-400v500z" />
    <glyph glyph-name="afii10089" unicode="&#x447;" horiz-adv-x="598" 
d="M39 500h180v-181c0 -56 18 -77 70 -77c27 0 54 4 80 8v250h180v-500h-180v143c-40 -6 -89 -12 -137 -12c-131 0 -193 60 -193 221v148z" />
    <glyph glyph-name="afii10090" unicode="&#x448;" horiz-adv-x="866" 
d="M350 500h166v-379h128v379h173v-500h-768v500h173v-379h128v379z" />
    <glyph glyph-name="afii10091" unicode="&#x449;" horiz-adv-x="910" 
d="M49 0v500h173v-379h128v379h166v-379h128v379h173v-379h60l-11 -281h-169v160h-648z" />
    <glyph glyph-name="afii10092" unicode="&#x44a;" horiz-adv-x="671" 
d="M13 389l14 111h295v-156c87 4 101 4 114 4c132 0 201 -35 201 -171c0 -147 -105 -177 -263 -177h-232v389h-129zM384 246h-62v-142h67c46 0 67 25 67 73c0 39 -19 69 -72 69z" />
    <glyph glyph-name="afii10093" unicode="&#x44b;" horiz-adv-x="836" 
d="M607 0v500h180v-500h-180zM49 0v500h180v-156c88 4 102 4 115 4c131 0 200 -35 200 -171c0 -147 -104 -177 -262 -177h-233zM291 246h-62v-142h67c47 0 67 25 67 73c0 39 -19 69 -72 69z" />
    <glyph glyph-name="afii10094" unicode="&#x44c;" horiz-adv-x="578" 
d="M49 0v500h180v-156c88 4 102 4 115 4c131 0 200 -35 200 -171c0 -147 -104 -177 -262 -177h-233zM291 246h-62v-142h67c47 0 67 25 67 73c0 39 -19 69 -72 69z" />
    <glyph glyph-name="afii10095" unicode="&#x44d;" horiz-adv-x="508" 
d="M291 188v15h-190v96h190v18c0 62 -46 70 -118 70c-42 0 -71 -9 -114 -24l-25 112c52 21 121 35 183 35c148 0 256 -67 256 -224v-75c0 -156 -109 -221 -256 -221c-62 0 -137 13 -190 33l25 113c44 -15 80 -24 121 -24c73 0 118 9 118 76z" />
    <glyph glyph-name="afii10096" unicode="&#x44e;" horiz-adv-x="867" 
d="M304 192h-89v-192h-166v500h166v-201h88v24c0 126 129 186 264 186c152 0 266 -62 266 -222v-75c0 -160 -114 -223 -266 -223c-128 0 -263 62 -263 189v14zM480 290v-92c0 -54 26 -85 87 -85c58 0 86 31 86 85v92c0 64 -22 96 -86 96c-58 0 -87 -31 -87 -96z" />
    <glyph glyph-name="afii10097" unicode="&#x44f;" horiz-adv-x="613" 
d="M255 500h309v-500h-180v159h-55l-103 -159h-194l127 173c-62 6 -128 30 -128 151s69 176 224 176zM218 325c1 -48 22 -69 77 -69h89v140h-89c-55 0 -77 -24 -77 -71z" />
    <glyph glyph-name="afii10071" unicode="&#x451;" horiz-adv-x="570" 
d="M95 721h159v-152h-159v152zM314 721h160v-152h-160v152zM511 131l18 -117c-63 -13 -142 -24 -232 -24c-129 0 -263 39 -263 205v77c0 162 83 238 257 238c126 0 252 -40 252 -199v-112h-328v-17c0 -66 48 -74 82 -74c73 0 168 11 214 23zM215 314v-15h161v20
c0 48 -32 82 -85 82s-76 -34 -76 -87z" />
    <glyph glyph-name="endash" unicode="&#x2013;" 
d="M62 267v152h500v-152h-500z" />
    <glyph glyph-name="emdash" unicode="&#x2014;" horiz-adv-x="894" 
d="M62 267v152h770v-152h-770z" />
    <glyph glyph-name="quoteleft" unicode="&#x2018;" horiz-adv-x="310" 
d="M253 422h-200v106c0 88 62 179 119 222l63 -35c-28 -32 -46 -71 -46 -119h64v-174z" />
    <glyph glyph-name="quoteright" unicode="&#x2019;" horiz-adv-x="310" 
d="M55 700h200v-106c0 -88 -61 -179 -119 -222l-63 35c28 32 47 71 47 119h-65v174z" />
    <glyph glyph-name="quotesinglbase" unicode="&#x201a;" horiz-adv-x="310" 
d="M55 174h200v-106c0 -88 -61 -179 -119 -222l-63 35c28 32 47 71 47 119h-65v174z" />
    <glyph glyph-name="quotedblleft" unicode="&#x201c;" horiz-adv-x="556" 
d="M510 422h-200v106c0 88 62 179 119 222l63 -35c-28 -32 -46 -71 -46 -119h64v-174zM253 422h-200v106c0 88 62 179 119 222l63 -35c-28 -32 -46 -71 -46 -119h64v-174z" />
    <glyph glyph-name="quotedblright" unicode="&#x201d;" horiz-adv-x="556" 
d="M55 700h200v-106c0 -88 -61 -179 -119 -222l-63 35c28 32 47 71 47 119h-65v174zM312 700h200v-106c0 -88 -61 -179 -119 -222l-63 35c28 32 47 71 47 119h-65v174z" />
    <glyph glyph-name="quotedblbase" unicode="&#x201e;" horiz-adv-x="556" 
d="M55 174h200v-106c0 -88 -61 -179 -119 -222l-63 35c28 32 47 71 47 119h-65v174zM312 174h200v-106c0 -88 -61 -179 -119 -222l-63 35c28 32 47 71 47 119h-65v174z" />
    <glyph glyph-name="bullet" unicode="&#x2022;" horiz-adv-x="395" 
d="M62 274c0 75 37 137 134 137c98 0 137 -62 137 -137c0 -74 -39 -135 -137 -135c-97 0 -134 61 -134 135z" />
    <glyph glyph-name="ellipsis" unicode="&#x2026;" horiz-adv-x="820" 
d="M55 174h200v-174h-200v174zM310 174h200v-174h-200v174zM565 174h200v-174h-200v174z" />
    <glyph glyph-name="perthousand" unicode="&#x2030;" horiz-adv-x="1424" 
d="M781 -10c-109 0 -175 51 -175 164v63c0 113 67 168 175 168c107 0 175 -54 175 -168v-63c0 -112 -66 -164 -175 -164zM237 710c107 0 174 -54 174 -167v-64c0 -112 -65 -164 -174 -164s-175 51 -175 164v64c0 112 67 167 175 167zM182 550v-62c0 -49 14 -83 55 -83
c40 0 53 29 53 71v62c0 38 -11 82 -53 82c-41 0 -55 -34 -55 -70zM781 295c-43 0 -54 -44 -54 -85v-59c0 -42 14 -72 54 -72c41 0 53 30 53 72v73c0 37 -12 71 -53 71zM764 701l-347 -701h-167l346 701h168zM1188 -10c-110 0 -175 51 -175 164v63c0 113 67 168 175 168
c107 0 174 -54 174 -168v-63c0 -112 -66 -164 -174 -164zM1188 295c-43 0 -55 -44 -55 -85v-59c0 -42 14 -72 55 -72c40 0 53 30 53 72v73c0 37 -13 71 -53 71z" />
    <glyph glyph-name="Euro" unicode="&#x20ac;" horiz-adv-x="701" 
d="M79 375l-17 90h60v9c0 178 132 236 287 236c102 0 210 -26 230 -34l-33 -135c-17 7 -105 19 -164 19c-61 0 -129 -19 -129 -86v-9h279l-15 -90h-264v-45h257l-15 -91h-242v-13c0 -63 64 -86 128 -86c60 0 151 11 172 19l26 -136c-21 -8 -127 -33 -230 -33
c-156 0 -287 61 -287 236v13h-43l-17 91h57v45h-40z" />
    <glyph glyph-name="afii61352" unicode="&#x2116;" horiz-adv-x="1147" 
d="M471 700h172v-700h-187l-223 404v-404h-171v700h192l217 -398v398zM693 412v41c0 86 54 157 194 157c139 0 198 -71 198 -157v-41c0 -87 -59 -156 -198 -156c-140 0 -194 70 -194 156zM834 451v-37c0 -37 7 -61 53 -61s53 24 53 61v37c0 37 -7 62 -53 62s-53 -25 -53 -62
zM697 110v105h388v-105h-388z" />
    <glyph glyph-name="trademark" unicode="&#x2122;" horiz-adv-x="880" 
d="M43 601v99h295v-99h-87v-250h-120v250h-88zM479 568l-14 -217h-107l29 349h137l70 -219l71 219h137l28 -349h-106l-14 217l-64 -217h-103z" />
    <glyph glyph-name=".null" horiz-adv-x="0" 
 />
    <glyph glyph-name="percent" unicode="%" horiz-adv-x="1018" 
d="M781 -10c-109 0 -185 51 -185 164v63c0 113 77 168 185 168c107 0 185 -54 185 -168v-63c0 -112 -76 -164 -185 -164zM237 710c107 0 184 -54 184 -167v-64c0 -112 -75 -164 -184 -164s-185 51 -185 164v64c0 112 77 167 185 167zM182 550v-62c0 -49 11 -73 55 -73
c40 0 53 19 53 61v62c0 38 -9 72 -53 72c-41 0 -55 -24 -55 -60zM781 285c-46 0 -54 -34 -54 -75v-59c0 -42 14 -62 54 -62c41 0 53 20 53 62v73c0 37 -12 61 -53 61zM764 700l-347 -700h-167l346 700h168z" />
    <glyph glyph-name="CR" horiz-adv-x="278" 
 />
    <glyph glyph-name="currency" unicode="&#xa4;" horiz-adv-x="699" 
d="M30 218v119h72v363h263c212 0 298 -74 298 -232c0 -168 -86 -250 -298 -250h-69v-45h284v-119h-284v-54h-194v54h-72v119h72v45h-72zM296 550v-213h69c59 0 102 18 102 110c0 83 -35 103 -102 103h-69z" />
    </font>
</defs>
</svg>
